999
DXF file: 32800-40bt.dxf
999
Pro/ENGINEER 2015380 by Parametric Technology Corporation
  0
SECTION
  2
HEADER
  9
$ACADVER
  1
AC1027
  9
$DWGCODEPAGE
  3
ANSI_1252
  9
$EXTMAX
 10
210.0
 20
297.0
 30
0.0
  9
$EXTMIN
 10
0.0
 20
0.0
 30
0.0
  9
$LIMMIN
 10
0.0
 20
0.0
  9
$LIMMAX
 10
210.0
 20
297.0
  9
$VIEWCTR
 10
105.0
 20
148.5
  9
$VIEWSIZE
 40
297.0
  9
$CLAYER
  8
0
  9
$LTSCALE
 40
19.36
  9
$CELTYPE
  6
BYLAYER
  9
$DIMSCALE
 40
1.0
  9
$DIMASZ
 40
4.76
  9
$DIMEXO
 40
0.1
  9
$DIMDLI
 40
13.376
  9
$DIMEXE
 40
1.0
  9
$DIMCEN
 40
3.168
  9
$DIMLFAC
 40
1.0
  9
$DIMBLK
  1
_FILLED
  9
$DIMALT
 70
0
  9
$DIMALTF
 40
0.0393700787
  9
$DIMTXT
 40
3.0
  9
$DIMTOL
 70
1
  9
$DIMLIM
 70
0
  9
$DIMTFAC
 40
1.0
  9
$DIMTP
 40
0.001
  9
$DIMTM
 40
0.001
  9
$DIMGAP
 40
0.625
  9
$DIMDSEP
 70
46
  9
$AUNITS
 70
0
  9
$PDMODE
 70
3
  9
$PDSIZE
 40
0.3125
  9
$HANDSEED
  5
2BC
  9
$TILEMODE
 70
1
  9
$MEASUREMENT
 70
1
  9
$INSUNITS
 70
4
  0
ENDSEC
  0
SECTION
  2
CLASSES
  0
CLASS
  1
ACDBDICTIONARYWDFLT
  2
AcDbDictionaryWithDefault
  3
AutoCAD 2000
 90
0
 91
1
280
0
281
0
  0
CLASS
  1
ACDBPLACEHOLDER
  2
AcDbPlaceHolder
  3
AutoCAD 2000
 90
0
 91
1
280
0
281
0
  0
CLASS
  1
LAYOUT
  2
AcDbLayout
  3
AutoCAD 2000
 90
0
 91
0
280
0
281
0
  0
ENDSEC
  0
SECTION
  2
TABLES
  0
TABLE
  2
VPORT
  5
8
100
AcDbSymbolTable
 70
2
  0
VPORT
  5
1F4
100
AcDbSymbolTableRecord
100
AcDbViewportTableRecord
  2
*ACTIVE
 70
0
 10
0.0
 20
0.0
 11
1.0
 21
1.0
 12
105.0
 22
148.5
 13
0.0
 23
0.0
 14
1.0
 24
1.0
 15
0.0
 25
0.0
 16
0.0
 26
0.0
 36
1.0
 17
0.0
 27
0.0
 37
0.0
 40
297.0
 41
0.7070707071
 42
50.0
 43
0.0
 44
0.0
 50
0.0
 51
0.0
 71
0
 72
100
 73
1
 74
1
 75
0
 76
0
 77
0
 78
0
  0
ENDTAB
  0
TABLE
  2
LTYPE
  5
5
100
AcDbSymbolTable
 70
6
  0
LTYPE
  5
14
100
AcDbSymbolTableRecord
100
AcDbLinetypeTableRecord
  2
BYBLOCK
 70
0
  3

 72
65
 73
0
 40
0.0
  0
LTYPE
  5
15
100
AcDbSymbolTableRecord
100
AcDbLinetypeTableRecord
  2
BYLAYER
 70
0
  3

 72
65
 73
0
 40
0.0
  0
LTYPE
  5
16
100
AcDbSymbolTableRecord
100
AcDbLinetypeTableRecord
  2
CONTINUOUS
 70
64
  3
Solid line
 72
65
 73
0
 40
0.0
  0
LTYPE
  5
1F5
100
AcDbSymbolTableRecord
100
AcDbLinetypeTableRecord
  2
CENTER
 70
64
  3
____ _ ____ _ ____ _ ____ _ ____ _ ____ _ ____
 72
65
 73
4
 40
0.6
 49
0.375
 74
0
 49
-0.075
 74
0
 49
0.075
 74
0
 49
-0.075
 74
0
  0
LTYPE
  5
1F6
100
AcDbSymbolTableRecord
100
AcDbLinetypeTableRecord
  2
HIDDEN
 70
64
  3
- - - - - - - - - - - - - - - - - - - -
 72
65
 73
2
 40
0.2
 49
0.1
 74
0
 49
-0.1
 74
0
  0
LTYPE
  5
1F7
100
AcDbSymbolTableRecord
100
AcDbLinetypeTableRecord
  2
PHANTOM
 70
64
  3
_____ _ _ _____ _ _ _____ _ _ _____
 72
65
 73
6
 40
0.8
 49
0.45
 74
0
 49
-0.05
 74
0
 49
0.1
 74
0
 49
-0.05
 74
0
 49
0.1
 74
0
 49
-0.05
 74
0
  0
LTYPE
  5
1F8
100
AcDbSymbolTableRecord
100
AcDbLinetypeTableRecord
  2
DOT
 70
64
  3
. . . . . . . . . . . . . . . . . . . .
 72
65
 73
2
 40
0.2
 49
0.1
 74
0
 49
-0.1
 74
0
  0
LTYPE
  5
1F9
100
AcDbSymbolTableRecord
100
AcDbLinetypeTableRecord
  2
DASHED
 70
64
  3
- - - - - - - - - - - - - - - - - - - -
 72
65
 73
2
 40
0.2
 49
0.1
 74
0
 49
-0.1
 74
0
  0
ENDTAB
  0
TABLE
  2
LAYER
  5
2
100
AcDbSymbolTable
 70
36
  0
LAYER
  5
10
100
AcDbSymbolTableRecord
100
AcDbLayerTableRecord
  2
0
 70
0
 62
7
  6
CONTINUOUS
370
-3
390
F
  0
LAYER
  5
1FA
100
AcDbSymbolTableRecord
100
AcDbLayerTableRecord
  2
DEFAULT_1
 70
0
 62
7
  6
CENTER
370
-3
390
F
  0
LAYER
  5
1FB
100
AcDbSymbolTableRecord
100
AcDbLayerTableRecord
  2
DEFAULT_2
 70
0
 62
8
  6
HIDDEN
370
-3
390
F
  0
LAYER
  5
1FC
100
AcDbSymbolTableRecord
100
AcDbLayerTableRecord
  2
DEFAULT_3
 70
0
 62
7
  6
PHANTOM
370
-3
390
F
  0
LAYER
  5
1FD
100
AcDbSymbolTableRecord
100
AcDbLayerTableRecord
  2
0_COMPONENTS
 70
0
 62
7
  6
CONTINUOUS
370
-3
390
F
  0
LAYER
  5
1FE
100
AcDbSymbolTableRecord
100
AcDbLayerTableRecord
  2
1_ALL_PLANES
 70
0
 62
7
  6
CONTINUOUS
370
-3
390
F
  0
LAYER
  5
1FF
100
AcDbSymbolTableRecord
100
AcDbLayerTableRecord
  2
1__DEF_ASM_PLN
 70
0
 62
7
  6
CONTINUOUS
370
-3
390
F
  0
LAYER
  5
200
100
AcDbSymbolTableRecord
100
AcDbLayerTableRecord
  2
1__DEF_PLANES
 70
0
 62
7
  6
CONTINUOUS
370
-3
390
F
  0
LAYER
  5
201
100
AcDbSymbolTableRecord
100
AcDbLayerTableRecord
  2
2_ALL_CSYS
 70
0
 62
7
  6
CONTINUOUS
370
-3
390
F
  0
LAYER
  5
202
100
AcDbSymbolTableRecord
100
AcDbLayerTableRecord
  2
2__DEF_ASM_CSYS
 70
0
 62
7
  6
CONTINUOUS
370
-3
390
F
  0
LAYER
  5
203
100
AcDbSymbolTableRecord
100
AcDbLayerTableRecord
  2
2__DEF_CSYS
 70
0
 62
7
  6
CONTINUOUS
370
-3
390
F
  0
LAYER
  5
204
100
AcDbSymbolTableRecord
100
AcDbLayerTableRecord
  2
3_ALL_AXES
 70
0
 62
7
  6
CONTINUOUS
370
-3
390
F
  0
LAYER
  5
205
100
AcDbSymbolTableRecord
100
AcDbLayerTableRecord
  2
4_ALL_POINTS
 70
0
 62
7
  6
CONTINUOUS
370
-3
390
F
  0
LAYER
  5
206
100
AcDbSymbolTableRecord
100
AcDbLayerTableRecord
  2
5_ALL_CURVES
 70
0
 62
7
  6
CONTINUOUS
370
-3
390
F
  0
LAYER
  5
207
100
AcDbSymbolTableRecord
100
AcDbLayerTableRecord
  2
5_ALL_GTOLS(FREE)
 70
0
 62
7
  6
CONTINUOUS
370
-3
390
F
  0
LAYER
  5
208
100
AcDbSymbolTableRecord
100
AcDbLayerTableRecord
  2
6_ALL_SURFS
 70
0
 62
7
  6
CONTINUOUS
370
-3
390
F
  0
LAYER
  5
209
100
AcDbSymbolTableRecord
100
AcDbLayerTableRecord
  2
GIANNI_ASSI
 70
0
 62
7
  6
CONTINUOUS
370
-3
390
F
  0
LAYER
  5
20A
100
AcDbSymbolTableRecord
100
AcDbLayerTableRecord
  2
GIANNI_CURVE
 70
0
 62
7
  6
CONTINUOUS
370
-3
390
F
  0
LAYER
  5
20B
100
AcDbSymbolTableRecord
100
AcDbLayerTableRecord
  2
SKETCH_CURVE
 70
0
 62
7
  6
CONTINUOUS
370
-3
390
F
  0
LAYER
  5
20C
100
AcDbSymbolTableRecord
100
AcDbLayerTableRecord
  2
XSEC_DATUMS
 70
0
 62
7
  6
CONTINUOUS
370
-3
390
F
  0
ENDTAB
  0
TABLE
  2
STYLE
  5
3
100
AcDbSymbolTable
 70
1
  0
STYLE
  5
11
100
AcDbSymbolTableRecord
100
AcDbTextStyleTableRecord
  2
STANDARD
 70
0
 40
0.0
 41
1.2
 50
0.0
 71
0
 42
0.2
  3
txt
  4

  0
STYLE
  5
20D
100
AcDbSymbolTableRecord
100
AcDbTextStyleTableRecord
  2
TEXTSTYLE_1
 70
0
 40
0.0
 41
0.8
 50
0.0
 71
0
 42
0.2
  3
gdt
  4

  0
STYLE
  5
20E
100
AcDbSymbolTableRecord
100
AcDbTextStyleTableRecord
  2
TEXTSTYLE_2
 70
0
 40
0.0
 41
1.2
 50
0.0
 71
0
 42
0.2
  3
gdt
  4

  0
ENDTAB
  0
TABLE
  2
VIEW
  5
6
100
AcDbSymbolTable
 70
0
  0
ENDTAB
  0
TABLE
  2
UCS
  5
7
100
AcDbSymbolTable
 70
0
  0
ENDTAB
  0
TABLE
  2
APPID
  5
9
100
AcDbSymbolTable
 70
1
  0
APPID
  5
20F
100
AcDbSymbolTableRecord
100
AcDbRegAppTableRecord
  2
ACAD
 70
0
  0
ENDTAB
  0
TABLE
  2
BLOCK_RECORD
  5
1
100
AcDbSymbolTable
 70
0
  0
BLOCK_RECORD
  5
210
100
AcDbSymbolTableRecord
100
AcDbBlockTableRecord
  2
*Model_Space
  0
BLOCK_RECORD
  5
211
100
AcDbSymbolTableRecord
100
AcDbBlockTableRecord
  2
*Paper_Space
  0
BLOCK_RECORD
  5
212
100
AcDbSymbolTableRecord
100
AcDbBlockTableRecord
  2
_FILLED
  0
BLOCK_RECORD
  5
213
100
AcDbSymbolTableRecord
100
AcDbBlockTableRecord
  2
*D0
  0
BLOCK_RECORD
  5
214
100
AcDbSymbolTableRecord
100
AcDbBlockTableRecord
  2
*D1
  0
BLOCK_RECORD
  5
215
100
AcDbSymbolTableRecord
100
AcDbBlockTableRecord
  2
*D2
  0
ENDTAB
  0
TABLE
  2
DIMSTYLE
  5
A
100
AcDbSymbolTable
 70
1
100
AcDbDimStyleTable
 71
0
  0
DIMSTYLE
105
216
100
AcDbSymbolTableRecord
100
AcDbDimStyleTableRecord
  2
STANDARD
 70
0
  3

  4

 40
1.0
 41
4.76
 42
0.1
 43
0.38
 44
1.0
 45
0.0
 46
0.0
 47
0.001
 48
0.001
140
3.0
141
0.09
142
0.0
143
25.4
144
1.0
145
0.0
146
1.0
147
0.625
 71
1.0
 72
0.0
 73
0
 74
0
 75
0
 76
0
 77
1
 78
8
170
0
171
2
172
0
173
0
174
0
175
0
176
0
177
0
178
5
270
2
271
3
272
3
273
2
274
2
275
0
280
0
281
0
282
0
283
1
284
8
285
0
286
0
287
3
288
0
340
11
278
46
341
212
342
212
343
212
344
212
  0
DIMSTYLE
105
217
100
AcDbSymbolTableRecord
100
AcDbDimStyleTableRecord
  2
DIMSTYLE_1
 70
0
  3

  4

 40
1.0
 41
4.76
 42
0.1
 43
0.38
 44
1.0
 45
0.0
 46
0.0
 47
0.01
 48
0.01
140
3.0
141
0.09
142
0.0
143
25.4
144
1.0
145
0.0
146
1.0
147
0.75
 71
0.0
 72
0.0
 73
0
 74
0
 75
0
 76
0
 77
1
 78
8
170
0
171
2
172
0
173
0
174
0
175
0
176
0
177
0
178
5
270
2
271
3
272
3
273
2
274
2
275
0
280
0
281
0
282
0
283
1
284
8
285
0
286
0
287
3
288
0
340
11
278
46
341
212
342
212
343
212
344
212
  0
DIMSTYLE
105
218
100
AcDbSymbolTableRecord
100
AcDbDimStyleTableRecord
  2
DIMSTYLE_2
 70
0
  3

  4

 40
1.0
 41
4.76
 42
0.1
 43
0.38
 44
1.0
 45
0.0
 46
0.0
 47
0.01
 48
0.01
140
3.0
141
0.09
142
0.0
143
25.4
144
1.0
145
0.0
146
1.0
147
0.75
 71
0.0
 72
0.0
 73
0
 74
0
 75
0
 76
0
 77
1
 78
8
170
0
171
2
172
0
173
0
174
0
175
0
176
0
177
0
178
5
270
2
271
0
272
0
273
2
274
2
275
0
280
0
281
0
282
0
283
1
284
8
285
0
286
0
287
3
288
0
340
11
278
46
341
212
342
212
343
212
344
212
  0
ENDTAB
  0
ENDSEC
  0
SECTION
  2
BLOCKS
  0
BLOCK
  5
20
100
AcDbEntity
  8
0
100
AcDbBlockBegin
  2
*Model_Space
 70
0
 10
0.0
 20
0.0
 30
0.0
  3
*Model_Space
  1

  0
ENDBLK
  5
21
100
AcDbEntity
  8
0
100
AcDbBlockEnd
  0
BLOCK
  5
1C
100
AcDbEntity
  8
0
100
AcDbBlockBegin
  2
*Paper_Space
 70
0
 10
0.0
 20
0.0
 30
0.0
  3
*Paper_Space
  1

  0
ENDBLK
  5
1D
100
AcDbEntity
  8
0
100
AcDbBlockEnd
  0
BLOCK
  5
219
100
AcDbEntity
  8
0
100
AcDbBlockBegin
  2
_FILLED
 70
64
 10
0.0
 20
0.0
  3
_FILLED
  1

  0
SOLID
  5
21A
100
AcDbEntity
  8
0
  6
BYBLOCK
 62
0
100
AcDbTrace
 10
0.0
 20
0.0
 11
-1.0
 21
0.1050420168
 12
-1.0
 22
-0.1050420168
 13
-1.0
 23
-0.1050420168
  0
ENDBLK
  5
21B
100
AcDbEntity
  8
0
  6
BYBLOCK
 62
0
100
AcDbBlockEnd
  0
BLOCK
  5
21C
100
AcDbEntity
  8
0
100
AcDbBlockBegin
 62
2
  6
CONTINUOUS
  2
*D0
 70
65
 10
0.0
 20
0.0
  3
*D0
  1

  0
MTEXT
  5
21D
100
AcDbEntity
  8
0
100
AcDbMText
 62
5
  6
CONTINUOUS
  7
TEXTSTYLE_2
 71
2
 72
1
 10
106.1740631068
 20
39.2466262136
 30
0.0
 11
1.0
 21
0.0
 31
0.0
 44
0.9
  1
{\Fgdt;n}\Ftxt;48
 40
3.0
 41
13.0714285714
  0
LINE
  5
21E
100
AcDbEntity
  8
0
100
AcDbLine
 62
2
  6
CONTINUOUS
 10
132.0036407767
 20
52.0474514563
 11
132.0036407767
 21
34.4966262136
  0
LINE
  5
21F
100
AcDbEntity
  8
0
100
AcDbLine
 62
2
  6
CONTINUOUS
 10
84.0036407767
 20
52.0474514563
 11
84.0036407767
 21
34.4966262136
  0
LINE
  5
220
100
AcDbEntity
  8
0
100
AcDbLine
 62
2
  6
CONTINUOUS
 10
132.0036407767
 20
35.4966262136
 11
108.0036407767
 21
35.4966262136
  0
LINE
  5
221
100
AcDbEntity
  8
0
100
AcDbLine
 62
2
  6
CONTINUOUS
 10
84.0036407767
 20
35.4966262136
 11
108.0036407767
 21
35.4966262136
  0
INSERT
  5
222
100
AcDbEntity
  8
0
100
AcDbBlockReference
 62
2
  6
CONTINUOUS
  2
_FILLED
 10
132.0036407767
 20
35.4966262136
 41
4.76
 42
4.76
 43
4.76
  0
INSERT
  5
223
100
AcDbEntity
  8
0
100
AcDbBlockReference
 62
2
  6
CONTINUOUS
  2
_FILLED
 10
84.0036407767
 20
35.4966262136
 41
4.76
 42
4.76
 43
4.76
 50
180.0
  0
ENDBLK
  5
224
100
AcDbEntity
  8
0
  6
BYBLOCK
 62
0
100
AcDbBlockEnd
  0
BLOCK
  5
225
100
AcDbEntity
  8
0
100
AcDbBlockBegin
 62
2
  6
CONTINUOUS
  2
*D1
 70
65
 10
0.0
 20
0.0
  3
*D1
  1

  0
MTEXT
  5
226
100
AcDbEntity
  8
0
100
AcDbMText
 62
5
  6
CONTINUOUS
  7
TEXTSTYLE_2
 71
2
 72
1
 10
111.300276699
 20
29.2505097087
 30
0.0
 11
1.0
 21
0.0
 31
0.0
 44
0.9
  1
{\Fgdt;n}\Ftxt;79
 40
3.0
 41
13.0714285714
  0
LINE
  5
227
100
AcDbEntity
  8
0
100
AcDbLine
 62
2
  6
CONTINUOUS
 10
68.5036407767
 20
54.7294365427
 11
68.5036407767
 21
24.5005097087
  0
LINE
  5
228
100
AcDbEntity
  8
0
100
AcDbLine
 62
2
  6
CONTINUOUS
 10
147.5036407767
 20
54.7294365427
 11
147.5036407767
 21
24.5005097087
  0
LINE
  5
229
100
AcDbEntity
  8
0
100
AcDbLine
 62
2
  6
CONTINUOUS
 10
68.5036407767
 20
25.5005097087
 11
108.0036407767
 21
25.5005097087
  0
LINE
  5
22A
100
AcDbEntity
  8
0
100
AcDbLine
 62
2
  6
CONTINUOUS
 10
147.5036407767
 20
25.5005097087
 11
108.0036407767
 21
25.5005097087
  0
INSERT
  5
22B
100
AcDbEntity
  8
0
100
AcDbBlockReference
 62
2
  6
CONTINUOUS
  2
_FILLED
 10
68.5036407767
 20
25.5005097087
 41
4.76
 42
4.76
 43
4.76
 50
180.0
  0
INSERT
  5
22C
100
AcDbEntity
  8
0
100
AcDbBlockReference
 62
2
  6
CONTINUOUS
  2
_FILLED
 10
147.5036407767
 20
25.5005097087
 41
4.76
 42
4.76
 43
4.76
  0
ENDBLK
  5
22D
100
AcDbEntity
  8
0
  6
BYBLOCK
 62
0
100
AcDbBlockEnd
  0
BLOCK
  5
22E
100
AcDbEntity
  8
0
100
AcDbBlockBegin
 62
2
  6
CONTINUOUS
  2
*D2
 70
65
 10
0.0
 20
0.0
  3
*D2
  1

  0
MTEXT
  5
22F
100
AcDbEntity
  8
0
100
AcDbMText
 62
5
  6
CONTINUOUS
  7
STANDARD
 71
2
 72
1
 10
172.0960876973
 20
121.9474514563
 30
0.0
 11
0.0
 21
1.0
 31
0.0
 44
0.9
  1
140
 40
3.0
 41
9.6428571429
  0
LINE
  5
230
100
AcDbEntity
  8
0
100
AcDbLine
 62
2
  6
CONTINUOUS
 10
130.3286407767
 20
191.7474514563
 11
176.8460876973
 21
191.7474514563
  0
LINE
  5
231
100
AcDbEntity
  8
0
100
AcDbLine
 62
2
  6
CONTINUOUS
 10
145.2727379416
 20
52.1474514563
 11
176.8460876973
 21
52.1474514563
  0
LINE
  5
232
100
AcDbEntity
  8
0
100
AcDbLine
 62
2
  6
CONTINUOUS
 10
175.8460876973
 20
191.7474514563
 11
175.8460876973
 21
121.9474514563
  0
LINE
  5
233
100
AcDbEntity
  8
0
100
AcDbLine
 62
2
  6
CONTINUOUS
 10
175.8460876973
 20
52.1474514563
 11
175.8460876973
 21
121.9474514563
  0
INSERT
  5
234
100
AcDbEntity
  8
0
100
AcDbBlockReference
 62
2
  6
CONTINUOUS
  2
_FILLED
 10
175.8460876973
 20
191.7474514563
 41
4.76
 42
4.76
 43
4.76
 50
90.0
  0
INSERT
  5
235
100
AcDbEntity
  8
0
100
AcDbBlockReference
 62
2
  6
CONTINUOUS
  2
_FILLED
 10
175.8460876973
 20
52.1474514563
 41
4.76
 42
4.76
 43
4.76
 50
270.0
  0
ENDBLK
  5
236
100
AcDbEntity
  8
0
  6
BYBLOCK
 62
0
100
AcDbBlockEnd
  0
ENDSEC
  0
SECTION
  2
ENTITIES
  0
DIMENSION
  5
237
100
AcDbEntity
  8
0
100
AcDbDimension
 62
2
  6
CONTINUOUS
  2
*D0
 10
84.0036407767
 20
35.4966262136
 11
106.1740631068
 21
35.4966262136
 70
160
 71
2
 42
48.0
  1
%%c<>
  3
DIMSTYLE_1
100
AcDbAlignedDimension
 13
132.0036407767
 23
52.1474514563
 14
84.0036407767
 24
52.1474514563
 50
180.0
100
AcDbRotatedDimension
  0
DIMENSION
  5
238
100
AcDbEntity
  8
0
100
AcDbDimension
 62
2
  6
CONTINUOUS
  2
*D1
 10
147.5036407767
 20
25.5005097087
 11
111.300276699
 21
25.5005097087
 70
160
 71
2
 42
79.0
  1
%%c<>
  3
DIMSTYLE_1
100
AcDbAlignedDimension
 13
68.5036407767
 23
54.8294365427
 14
147.5036407767
 24
54.8294365427
100
AcDbRotatedDimension
  0
DIMENSION
  5
239
100
AcDbEntity
  8
0
100
AcDbDimension
 62
2
  6
CONTINUOUS
  2
*D2
 10
175.8460876973
 20
52.1474514563
 11
175.8460876973
 21
121.5188778495
 70
160
 71
2
 42
139.6
  3
DIMSTYLE_2
100
AcDbAlignedDimension
 13
130.2286407767
 23
191.7474514563
 14
145.1727379416
 24
52.1474514563
 50
270.0
100
AcDbRotatedDimension
  0
LINE
  5
23A
100
AcDbEntity
  8
0
100
AcDbLine
 62
7
  6
CONTINUOUS
 10
0.0
 20
0.0
 11
210.0
 21
0.0
  0
LINE
  5
23B
100
AcDbEntity
  8
0
100
AcDbLine
 62
7
  6
CONTINUOUS
 10
0.0
 20
0.0
 11
0.0
 21
297.0
  0
LINE
  5
23C
100
AcDbEntity
  8
0
100
AcDbLine
 62
7
  6
CONTINUOUS
 10
210.0
 20
0.0
 11
210.0
 21
297.0
  0
LINE
  5
23D
100
AcDbEntity
  8
0
100
AcDbLine
 62
7
  6
CONTINUOUS
 10
0.0
 20
297.0
 11
210.0
 21
297.0
  0
LINE
  5
23E
100
AcDbEntity
  8
0
100
AcDbLine
 62
7
  6
CONTINUOUS
 10
145.1727378697
 20
52.1474514563
 11
70.8345436853
 21
52.1474514563
  0
LINE
  5
23F
100
AcDbEntity
  8
0
100
AcDbLine
 62
7
  6
CONTINUOUS
 10
70.4515214628
 20
52.3260576507
 11
145.5557600906
 21
52.3260576507
  0
LINE
  5
240
100
AcDbEntity
  8
0
100
AcDbLine
 62
7
  6
CONTINUOUS
 10
147.3866629895
 20
54.5080427582
 11
68.6206185639
 21
54.5080427582
  0
LINE
  5
241
100
AcDbEntity
  8
0
100
AcDbLine
 62
7
  6
CONTINUOUS
 10
147.5036407767
 20
54.8294365732
 11
68.5036407767
 21
54.8294365732
  0
LINE
  5
242
100
AcDbEntity
  8
0
100
AcDbLine
 62
7
  6
CONTINUOUS
 10
68.6206185551
 20
54.5080427686
 11
70.4515214622
 21
52.3260576515
  0
LINE
  5
243
100
AcDbEntity
  8
3_ALL_AXES
100
AcDbLine
 62
7
  6
CONTINUOUS
 10
68.5036407767
 20
66.8974514563
 11
147.5036407767
 21
66.8974514563
  0
LINE
  5
244
100
AcDbEntity
  8
3_ALL_AXES
100
AcDbLine
 62
7
  6
CONTINUOUS
 10
68.7536407767
 20
67.1474514563
 11
147.2536407767
 21
67.1474514563
  0
LINE
  5
245
100
AcDbEntity
  8
3_ALL_AXES
100
AcDbLine
 62
7
  6
CONTINUOUS
 10
68.5036407767
 20
78.3974514563
 11
68.7536407767
 21
78.1474514563
  0
LINE
  5
246
100
AcDbEntity
  8
3_ALL_AXES
100
AcDbLine
 62
7
  6
CONTINUOUS
 10
68.7536407767
 20
78.1474514563
 11
147.2536407767
 21
78.1474514563
  0
LINE
  5
247
100
AcDbEntity
  8
3_ALL_AXES
100
AcDbLine
 62
7
  6
CONTINUOUS
 10
68.5036407767
 20
78.3974514563
 11
147.5036407767
 21
78.3974514563
  0
LINE
  5
248
100
AcDbEntity
  8
3_ALL_AXES
100
AcDbLine
 62
7
  6
CONTINUOUS
 10
68.5036407767
 20
92.8974514563
 11
147.5036407767
 21
92.8974514563
  0
LINE
  5
249
100
AcDbEntity
  8
3_ALL_AXES
100
AcDbLine
 62
7
  6
CONTINUOUS
 10
68.7536407767
 20
93.1474514563
 11
147.2536407767
 21
93.1474514563
  0
LINE
  5
24A
100
AcDbEntity
  8
3_ALL_AXES
100
AcDbLine
 62
7
  6
CONTINUOUS
 10
68.5036407767
 20
104.3974514563
 11
68.7536407767
 21
104.1474514563
  0
LINE
  5
24B
100
AcDbEntity
  8
3_ALL_AXES
100
AcDbLine
 62
7
  6
CONTINUOUS
 10
68.7536407767
 20
104.1474514563
 11
147.2536407767
 21
104.1474514563
  0
LINE
  5
24C
100
AcDbEntity
  8
0
100
AcDbLine
 62
7
  6
CONTINUOUS
 10
77.2036407767
 20
189.7474514563
 11
76.5036407767
 21
189.0474514563
  0
LINE
  5
24D
100
AcDbEntity
  8
3_ALL_AXES
100
AcDbLine
 62
7
  6
CONTINUOUS
 10
68.5036407767
 20
104.3974514563
 11
147.5036407767
 21
104.3974514563
  0
LINE
  5
24E
100
AcDbEntity
  8
3_ALL_AXES
100
AcDbLine
 62
7
  6
CONTINUOUS
 10
68.5036407767
 20
117.1474514563
 11
68.5036407767
 21
104.3974514563
  0
LINE
  5
24F
100
AcDbEntity
  8
3_ALL_AXES
100
AcDbLine
 62
7
  6
CONTINUOUS
 10
68.5036407767
 20
92.8974514563
 11
68.5036407767
 21
78.3974514563
  0
LINE
  5
250
100
AcDbEntity
  8
3_ALL_AXES
100
AcDbLine
 62
7
  6
CONTINUOUS
 10
68.5036407767
 20
66.8974514563
 11
68.5036407767
 21
54.8294365734
  0
LINE
  5
251
100
AcDbEntity
  8
3_ALL_AXES
100
AcDbLine
 62
7
  6
CONTINUOUS
 10
68.7536407767
 20
104.1474514563
 11
68.7536407767
 21
93.1474514563
  0
LINE
  5
252
100
AcDbEntity
  8
3_ALL_AXES
100
AcDbLine
 62
7
  6
CONTINUOUS
 10
68.7536407767
 20
78.1474514563
 11
68.7536407767
 21
67.1474514563
  0
LINE
  5
253
100
AcDbEntity
  8
GIANNI_ASSI
100
AcDbLine
 62
7
  6
CONTINUOUS
 10
71.0036407767
 20
150.2474514563
 11
71.0036407767
 21
148.6971779104
  0
LINE
  5
254
100
AcDbEntity
  8
GIANNI_ASSI
100
AcDbLine
 62
7
  6
CONTINUOUS
 10
71.0036407767
 20
142.5977250023
 11
71.0036407767
 21
118.1474514563
  0
LINE
  5
255
100
AcDbEntity
  8
0
100
AcDbLine
 62
7
  6
CONTINUOUS
 10
68.5036407767
 20
117.1474514563
 11
147.5036407767
 21
117.1474514563
  0
LINE
  5
256
100
AcDbEntity
  8
0
100
AcDbLine
 62
7
  6
CONTINUOUS
 10
69.5040918887
 20
118.1474514563
 11
146.5031896647
 21
118.1474514563
  0
LINE
  5
257
100
AcDbEntity
  8
0
100
AcDbLine
 62
7
  6
CONTINUOUS
 10
76.5036407767
 20
189.0474514563
 11
76.5036407767
 21
180.1703987983
  0
LINE
  5
258
100
AcDbEntity
  8
0
100
AcDbLine
 62
7
  6
CONTINUOUS
 10
76.5036407767
 20
164.7474514563
 11
76.5036407767
 21
170.1245041144
  0
LINE
  5
259
100
AcDbEntity
  8
0
100
AcDbLine
 62
7
  6
CONTINUOUS
 10
76.7536407767
 20
164.3144387544
 11
76.7536407767
 21
153.2474514563
  0
LINE
  5
25A
100
AcDbEntity
  8
0
100
AcDbLine
 62
7
  6
CONTINUOUS
 10
76.5036407767
 20
170.1245041144
 11
80.4405010559
 21
172.3974514563
  0
LINE
  5
25B
100
AcDbEntity
  8
3_ALL_AXES
100
AcDbLine
 62
7
  6
CONTINUOUS
 10
147.2536407767
 20
67.1474514563
 11
147.5036407767
 21
66.8974514563
  0
LINE
  5
25C
100
AcDbEntity
  8
0
100
AcDbLine
 62
7
  6
CONTINUOUS
 10
81.5036407767
 20
172.3974514563
 11
81.5036407767
 21
177.8974514563
  0
LINE
  5
25D
100
AcDbEntity
  8
DEFAULT_2
100
AcDbLine
 62
8
  6
HIDDEN
 10
84.0036407767
 20
52.1474514563
 11
84.0036407767
 21
94.4474514563
  0
LINE
  5
25E
100
AcDbEntity
  8
0
100
AcDbLine
 62
7
  6
CONTINUOUS
 10
86.1036407767
 20
189.7474514563
 11
86.1036407767
 21
191.1845349439
  0
LINE
  5
25F
100
AcDbEntity
  8
0
100
AcDbLine
 62
7
  6
CONTINUOUS
 10
85.7786407767
 20
191.7474514563
 11
95.1914156477
 21
256.2917592998
  0
LINE
  5
260
100
AcDbEntity
  8
0
100
AcDbLine
 62
7
  6
CONTINUOUS
 10
76.5036407767
 20
164.7474514563
 11
76.7536407767
 21
164.3144387544
  0
LINE
  5
261
100
AcDbEntity
  8
0
100
AcDbLine
 62
7
  6
CONTINUOUS
 10
115.2536407767
 20
187.9474514563
 11
117.0536407767
 21
189.7474514563
  0
LINE
  5
262
100
AcDbEntity
  8
3_ALL_AXES
100
AcDbLine
 62
7
  6
CONTINUOUS
 10
147.2536407767
 20
93.1474514563
 11
147.5036407767
 21
92.8974514563
  0
LINE
  5
263
100
AcDbEntity
  8
0
100
AcDbLine
 62
7
  6
CONTINUOUS
 10
98.9954039285
 20
189.0474514563
 11
98.9954039285
 21
180.1703987983
  0
LINE
  5
264
100
AcDbEntity
  8
0
100
AcDbLine
 62
7
  6
CONTINUOUS
 10
99.9536407767
 20
176.7974514563
 11
99.9536407767
 21
188.7474514563
  0
LINE
  5
265
100
AcDbEntity
  8
0
100
AcDbLine
 62
7
  6
CONTINUOUS
 10
100.7536407767
 20
176.7974514563
 11
100.7536407767
 21
187.9474514563
  0
LINE
  5
266
100
AcDbEntity
  8
0
100
AcDbLine
 62
7
  6
CONTINUOUS
 10
135.5667804975
 20
177.8974514563
 11
139.5036407767
 21
180.1703987983
  0
LINE
  5
267
100
AcDbEntity
  8
0
100
AcDbLine
 62
7
  6
CONTINUOUS
 10
76.7536407767
 20
153.2474514563
 11
71.0036407767
 21
150.2474514563
  0
LINE
  5
268
100
AcDbEntity
  8
0
100
AcDbLine
 62
2
  6
CONTINUOUS
 10
145.0034454733
 20
142.6474514563
 11
144.9555411482
 21
142.6474514563
  0
LINE
  5
269
100
AcDbEntity
  8
0
100
AcDbLine
 62
7
  6
CONTINUOUS
 10
129.9036407767
 20
191.1845349439
 11
130.2286407767
 21
191.7474514563
  0
LINE
  5
26A
100
AcDbEntity
  8
0
100
AcDbLine
 62
7
  6
CONTINUOUS
 10
69.5036407767
 20
118.1474514563
 11
68.5036407767
 21
117.1474514563
  0
LINE
  5
26B
100
AcDbEntity
  8
0
100
AcDbLine
 62
2
  6
CONTINUOUS
 10
145.0034454733
 20
148.6474514563
 11
144.9555262866
 21
148.6474514563
  0
LINE
  5
26C
100
AcDbEntity
  8
0
100
AcDbLine
 62
7
  6
CONTINUOUS
 10
71.0036407767
 20
150.2474514563
 11
145.0036407767
 21
150.2474514563
  0
LINE
  5
26D
100
AcDbEntity
  8
0
100
AcDbLine
 62
7
  6
CONTINUOUS
 10
76.7536407767
 20
153.2474514563
 11
139.2536407767
 21
153.2474514563
  0
LINE
  5
26E
100
AcDbEntity
  8
0
100
AcDbLine
 62
7
  6
CONTINUOUS
 10
86.1036407767
 20
191.1845349439
 11
85.7786407767
 21
191.7474514563
  0
LINE
  5
26F
100
AcDbEntity
  8
0
100
AcDbLine
 62
7
  6
CONTINUOUS
 10
115.2536407767
 20
187.9474514563
 11
115.2536407767
 21
176.7974514563
  0
LINE
  5
270
100
AcDbEntity
  8
0
100
AcDbLine
 62
7
  6
CONTINUOUS
 10
116.0536407767
 20
176.7974514563
 11
116.0536407767
 21
188.7474514563
  0
LINE
  5
271
100
AcDbEntity
  8
0
100
AcDbLine
 62
7
  6
CONTINUOUS
 10
80.4405010559
 20
177.8974514563
 11
76.5036407767
 21
180.1703987983
  0
LINE
  5
272
100
AcDbEntity
  8
0
100
AcDbLine
 62
7
  6
CONTINUOUS
 10
146.5036407767
 20
118.1474514563
 11
147.5036407767
 21
117.1474514563
  0
LINE
  5
273
100
AcDbEntity
  8
0
100
AcDbLine
 62
7
  6
CONTINUOUS
 10
117.0118776249
 20
189.0474514563
 11
117.0118776249
 21
180.1703987983
  0
LINE
  5
274
100
AcDbEntity
  8
0
100
AcDbLine
 62
7
  6
CONTINUOUS
 10
76.7536407767
 20
164.3144387544
 11
139.2536407767
 21
164.3144387544
  0
LINE
  5
275
100
AcDbEntity
  8
0
100
AcDbLine
 62
7
  6
CONTINUOUS
 10
76.5036407767
 20
164.7474514563
 11
139.5036407767
 21
164.7474514563
  0
LINE
  5
276
100
AcDbEntity
  8
0
100
AcDbLine
 62
7
  6
CONTINUOUS
 10
139.5036407767
 20
170.1245041144
 11
114.1060961601
 21
170.1245041144
  0
LINE
  5
277
100
AcDbEntity
  8
0
100
AcDbLine
 62
7
  6
CONTINUOUS
 10
101.9011853933
 20
170.1245041144
 11
76.5036407767
 21
170.1245041144
  0
LINE
  5
278
100
AcDbEntity
  8
0
100
AcDbLine
 62
7
  6
CONTINUOUS
 10
139.2536407767
 20
153.2474514563
 11
145.0036407767
 21
150.2474514563
  0
LINE
  5
279
100
AcDbEntity
  8
0
100
AcDbLine
 62
7
  6
CONTINUOUS
 10
129.9036407767
 20
189.7474514563
 11
129.9036407767
 21
191.1845349439
  0
LINE
  5
27A
100
AcDbEntity
  8
0
100
AcDbLine
 62
7
  6
CONTINUOUS
 10
139.5036407767
 20
164.7474514563
 11
139.2536407767
 21
164.3144387544
  0
LINE
  5
27B
100
AcDbEntity
  8
3_ALL_AXES
100
AcDbLine
 62
7
  6
CONTINUOUS
 10
68.7536407767
 20
93.1474514563
 11
68.5036407767
 21
92.8974514563
  0
LINE
  5
27C
100
AcDbEntity
  8
0
100
AcDbLine
 62
7
  6
CONTINUOUS
 10
80.4405010559
 20
172.3974514563
 11
101.2625355261
 21
172.3974514563
  0
LINE
  5
27D
100
AcDbEntity
  8
0
100
AcDbLine
 62
7
  6
CONTINUOUS
 10
114.7447460273
 20
172.3974514563
 11
135.5667804975
 21
172.3974514563
  0
LINE
  5
27E
100
AcDbEntity
  8
0
100
AcDbLine
 62
7
  6
CONTINUOUS
 10
100.7536407767
 20
176.7974514563
 11
99.9536407767
 21
176.7974514563
  0
LINE
  5
27F
100
AcDbEntity
  8
0
100
AcDbLine
 62
7
  6
CONTINUOUS
 10
115.2536407767
 20
176.7974514563
 11
116.0536407767
 21
176.7974514563
  0
LINE
  5
280
100
AcDbEntity
  8
0
100
AcDbLine
 62
7
  6
CONTINUOUS
 10
100.7536407767
 20
187.9474514563
 11
98.9536407767
 21
189.7474514563
  0
LINE
  5
281
100
AcDbEntity
  8
DEFAULT_2
100
AcDbLine
 62
8
  6
HIDDEN
 10
132.0036407767
 20
52.1474514563
 11
132.0036407767
 21
94.4474514563
  0
LINE
  5
282
100
AcDbEntity
  8
0
100
AcDbLine
 62
7
  6
CONTINUOUS
 10
134.5036407767
 20
172.3974514563
 11
134.5036407767
 21
177.8974514563
  0
LINE
  5
283
100
AcDbEntity
  8
0
100
AcDbLine
 62
7
  6
CONTINUOUS
 10
135.5667708523
 20
177.8974514563
 11
116.0536407767
 21
177.8974514563
  0
LINE
  5
284
100
AcDbEntity
  8
0
100
AcDbLine
 62
7
  6
CONTINUOUS
 10
99.9536407767
 20
177.8974514563
 11
80.4405107011
 21
177.8974514563
  0
LINE
  5
285
100
AcDbEntity
  8
0
100
AcDbLine
 62
7
  6
CONTINUOUS
 10
76.5036407767
 20
180.1703987983
 11
98.9954039285
 21
180.1703987983
  0
LINE
  5
286
100
AcDbEntity
  8
0
100
AcDbLine
 62
7
  6
CONTINUOUS
 10
117.0118776249
 20
180.1703987983
 11
139.5036407767
 21
180.1703987983
  0
LINE
  5
287
100
AcDbEntity
  8
0
100
AcDbLine
 62
7
  6
CONTINUOUS
 10
139.5036407767
 20
170.1245041144
 11
135.5667804975
 21
172.3974514563
  0
LINE
  5
288
100
AcDbEntity
  8
0
100
AcDbLine
 62
7
  6
CONTINUOUS
 10
130.2286407767
 20
191.7474514563
 11
120.8158659057
 21
256.2917592998
  0
LINE
  5
289
100
AcDbEntity
  8
0
100
AcDbLine
 62
7
  6
CONTINUOUS
 10
139.2536407767
 20
164.3144387544
 11
139.2536407767
 21
153.2474514563
  0
LINE
  5
28A
100
AcDbEntity
  8
0
100
AcDbLine
 62
7
  6
CONTINUOUS
 10
139.5036407767
 20
189.0474514563
 11
139.5036407767
 21
180.1703987983
  0
LINE
  5
28B
100
AcDbEntity
  8
0
100
AcDbLine
 62
7
  6
CONTINUOUS
 10
139.5036407767
 20
164.7474514563
 11
139.5036407767
 21
170.1245041144
  0
LINE
  5
28C
100
AcDbEntity
  8
GIANNI_ASSI
100
AcDbLine
 62
7
  6
CONTINUOUS
 10
145.0036407767
 20
150.2474514563
 11
145.0036407767
 21
149.19745188
  0
LINE
  5
28D
100
AcDbEntity
  8
GIANNI_ASSI
100
AcDbLine
 62
7
  6
CONTINUOUS
 10
145.0036407767
 20
142.0974510326
 11
145.0036407767
 21
118.1474514563
  0
LINE
  5
28E
100
AcDbEntity
  8
3_ALL_AXES
100
AcDbLine
 62
7
  6
CONTINUOUS
 10
68.7536407767
 20
67.1474514563
 11
68.5036407767
 21
66.8974514563
  0
LINE
  5
28F
100
AcDbEntity
  8
0
100
AcDbLine
 62
7
  6
CONTINUOUS
 10
76.5036407767
 20
189.0474514563
 11
98.9954039285
 21
189.0474514563
  0
LINE
  5
290
100
AcDbEntity
  8
0
100
AcDbLine
 62
7
  6
CONTINUOUS
 10
117.0118776249
 20
189.0474514563
 11
139.5036407767
 21
189.0474514563
  0
LINE
  5
291
100
AcDbEntity
  8
0
100
AcDbLine
 62
7
  6
CONTINUOUS
 10
77.2036514925
 20
189.7474514563
 11
138.8036300609
 21
189.7474514563
  0
LINE
  5
292
100
AcDbEntity
  8
0
100
AcDbLine
 62
7
  6
CONTINUOUS
 10
86.1036407767
 20
191.1845349439
 11
129.9036407767
 21
191.1845349439
  0
LINE
  5
293
100
AcDbEntity
  8
0
100
AcDbLine
 62
7
  6
CONTINUOUS
 10
85.7786407767
 20
191.7474514563
 11
130.2286407767
 21
191.7474514563
  0
LINE
  5
294
100
AcDbEntity
  8
3_ALL_AXES
100
AcDbLine
 62
7
  6
CONTINUOUS
 10
147.2536407767
 20
104.1474514563
 11
147.2536407767
 21
93.1474514563
  0
LINE
  5
295
100
AcDbEntity
  8
3_ALL_AXES
100
AcDbLine
 62
7
  6
CONTINUOUS
 10
147.2536407767
 20
78.1474514563
 11
147.2536407767
 21
67.1474514563
  0
LINE
  5
296
100
AcDbEntity
  8
3_ALL_AXES
100
AcDbLine
 62
7
  6
CONTINUOUS
 10
147.5036407767
 20
117.1474514563
 11
147.5036407767
 21
104.3974514563
  0
LINE
  5
297
100
AcDbEntity
  8
3_ALL_AXES
100
AcDbLine
 62
7
  6
CONTINUOUS
 10
147.5036407767
 20
92.8974514563
 11
147.5036407767
 21
78.3974514563
  0
LINE
  5
298
100
AcDbEntity
  8
3_ALL_AXES
100
AcDbLine
 62
7
  6
CONTINUOUS
 10
147.5036407767
 20
66.8974514563
 11
147.5036407767
 21
54.8294365734
  0
LINE
  5
299
100
AcDbEntity
  8
0
100
AcDbLine
 62
7
  6
CONTINUOUS
 10
138.8036407767
 20
189.7474514563
 11
139.5036407767
 21
189.0474514563
  0
LINE
  5
29A
100
AcDbEntity
  8
3_ALL_AXES
100
AcDbLine
 62
7
  6
CONTINUOUS
 10
147.5036407767
 20
104.3974514563
 11
147.2536407767
 21
104.1474514563
  0
LINE
  5
29B
100
AcDbEntity
  8
3_ALL_AXES
100
AcDbLine
 62
7
  6
CONTINUOUS
 10
147.5036407767
 20
78.3974514563
 11
147.2536407767
 21
78.1474514563
  0
LINE
  5
29C
100
AcDbEntity
  8
0
100
AcDbLine
 62
7
  6
CONTINUOUS
 10
147.3866629983
 20
54.5080427686
 11
145.5557600912
 21
52.3260576515
  0
LINE
  5
29D
100
AcDbEntity
  8
0
100
AcDbLine
 62
7
  6
CONTINUOUS
 10
95.1914156477
 20
256.2917592998
 11
120.8158659057
 21
256.2917592998
  0
LINE
  5
29E
100
AcDbEntity
  8
0
100
AcDbLine
 62
7
  6
CONTINUOUS
 10
96.1809484902
 20
257.1474514563
 11
119.8263330632
 21
257.1474514563
  0
ARC
  5
29F
100
AcDbEntity
  8
0
100
AcDbCircle
 62
7
  6
CONTINUOUS
 10
210.194333259
 20
77.850733375
 40
157.257470399
100
AcDbArc
 50
134.8309879126
 51
135.000569684
  0
ARC
  5
2A0
100
AcDbEntity
  8
0
100
AcDbCircle
 62
7
  6
CONTINUOUS
 10
5.8129483172
 20
77.8507333978
 40
157.2574703668
100
AcDbArc
 50
44.999430316
 51
45.1690120874
  0
ARC
  5
2A1
100
AcDbEntity
  8
0
100
AcDbCircle
 62
7
  6
CONTINUOUS
 10
170.768684253
 20
304.4679145901
 40
143.5314467305
100
AcDbArc
 50
239.9965166297
 51
240.4372479253
  0
ARC
  5
2A2
100
AcDbEntity
  8
0
100
AcDbCircle
 62
7
  6
CONTINUOUS
 10
45.2385978847
 20
304.467913455
 40
143.5314454554
100
AcDbArc
 50
299.5627520952
 51
300.0034833948
  0
ARC
  5
2A3
100
AcDbEntity
  8
0
100
AcDbCircle
 62
7
  6
CONTINUOUS
 10
71.3986789292
 20
107.1124127936
 40
76.1212660112
100
AcDbArc
 50
55.8719376675
 51
56.6441707505
  0
ARC
  5
2A4
100
AcDbEntity
  8
0
100
AcDbCircle
 62
7
  6
CONTINUOUS
 10
144.6078894126
 20
107.1133858531
 40
76.1200603831
100
AcDbArc
 50
123.3557828661
 51
124.1280288699
  0
ARC
  5
2A5
100
AcDbEntity
  8
GIANNI_ASSI
100
AcDbCircle
 62
7
  6
CONTINUOUS
 10
33.5808213647
 20
145.6269843056
 40
37.5486081751
100
AcDbArc
 50
0.0312310221
 51
4.5737180595
  0
ARC
  5
2A6
100
AcDbEntity
  8
GIANNI_ASSI
100
AcDbCircle
 62
7
  6
CONTINUOUS
 10
181.9425205302
 20
145.6493218295
 40
37.1089138123
100
AcDbArc
 50
175.0565625232
 51
180.0028878369
  0
ARC
  5
2A7
100
AcDbEntity
  8
GIANNI_ASSI
100
AcDbCircle
 62
7
  6
CONTINUOUS
 10
34.0442275334
 20
145.6492219105
 40
37.0851964705
100
AcDbArc
 50
355.3300533303
 51
359.9972646888
  0
ARC
  5
2A8
100
AcDbEntity
  8
GIANNI_ASSI
100
AcDbCircle
 62
7
  6
CONTINUOUS
 10
181.8182690869
 20
145.6406364647
 40
36.9846629497
100
AcDbArc
 50
179.9894423735
 51
184.6774067387
  0
ARC
  5
2A9
100
AcDbEntity
  8
0
100
AcDbCircle
 62
7
  6
CONTINUOUS
 10
108.0036407767
 20
176.7974514563
 40
8.05
100
AcDbArc
 50
180.0
 51
360.0
  0
ARC
  5
2AA
100
AcDbEntity
  8
0
100
AcDbCircle
 62
7
  6
CONTINUOUS
 10
108.0036407767
 20
176.7974514563
 40
7.2499999905
100
AcDbArc
 50
180.0
 51
360.0
  0
ARC
  5
2AB
100
AcDbEntity
  8
0
100
AcDbCircle
 62
7
  6
CONTINUOUS
 10
96.1809484902
 20
256.1474514563
 40
1.0
100
AcDbArc
 50
90.0
 51
171.7028
  0
ARC
  5
2AC
100
AcDbEntity
  8
0
100
AcDbCircle
 62
7
  6
CONTINUOUS
 10
119.8263330632
 20
256.1474514563
 40
1.0
100
AcDbArc
 50
8.2972
 51
90.0
  0
ARC
  5
2AD
100
AcDbEntity
  8
0
100
AcDbCircle
 62
7
  6
CONTINUOUS
 10
70.8345436837
 20
52.6474514563
 40
0.5
100
AcDbArc
 50
220.0
 51
270.0
  0
ARC
  5
2AE
100
AcDbEntity
  8
0
100
AcDbCircle
 62
7
  6
CONTINUOUS
 10
145.1727378697
 20
52.6474514563
 40
0.5
100
AcDbArc
 50
270.0
 51
320.0
  0
ARC
  5
2AF
100
AcDbEntity
  8
0
100
AcDbCircle
 62
7
  6
CONTINUOUS
 10
69.0036407767
 20
54.8294365734
 40
0.5
100
AcDbArc
 50
180.0
 51
220.0
  0
ARC
  5
2B0
100
AcDbEntity
  8
0
100
AcDbCircle
 62
7
  6
CONTINUOUS
 10
147.0036407767
 20
54.8294365734
 40
0.5
100
AcDbArc
 50
320.0
 51
360.0
  0
SPLINE
  5
2B1
100
AcDbEntity
  8
0
100
AcDbSpline
 62
2
  6
CONTINUOUS
 70
0
 71
3
 72
17
 73
13
 74
0
 42
0.0000001
 43
0.0000001
 44
0.0000000001
 40
0.0
 40
0.0
 40
0.0
 40
0.0
 40
0.1420090954
 40
0.2731941124
 40
0.3814168376
 40
0.4596963124
 40
0.5000000001
 40
0.5403022161
 40
0.6185817111
 40
0.7268032244
 40
0.8579900971
 40
1.0
 40
1.0
 40
1.0
 40
1.0
 10
144.8818186059
 20
145.6474514563
 30
0.0
 10
144.8826327261
 20
145.3558641059
 30
0.0
 10
144.8880181507
 20
144.8247196698
 30
0.0
 10
144.9123100878
 20
144.0814638474
 30
0.0
 10
144.9491789872
 20
143.4060253405
 30
0.0
 10
144.9708484996
 20
143.0652751582
 30
0.0
 10
145.0114418566
 20
142.5469011988
 30
0.0
 10
144.9708491152
 20
143.0652670307
 30
0.0
 10
144.9491795665
 20
143.4060155292
 30
0.0
 10
144.9123105001
 20
144.0814539828
 30
0.0
 10
144.8880182465
 20
144.8247127923
 30
0.0
 10
144.8826327091
 20
145.355862717
 30
0.0
 10
144.8818186059
 20
145.6474514563
 30
0.0
  0
SPLINE
  5
2B2
100
AcDbEntity
  8
0
100
AcDbSpline
 62
2
  6
CONTINUOUS
 70
0
 71
3
 72
17
 73
13
 74
0
 42
0.0000001
 43
0.0000001
 44
0.0000000001
 40
0.0
 40
0.0
 40
0.0
 40
0.0
 40
0.1420090954
 40
0.2731941124
 40
0.3814168376
 40
0.4596963124
 40
0.5000000001
 40
0.5403022161
 40
0.6185817111
 40
0.7268032244
 40
0.8579900971
 40
1.0
 40
1.0
 40
1.0
 40
1.0
 10
144.8818186059
 20
145.6474514563
 30
0.0
 10
144.8826327261
 20
145.9390388067
 30
0.0
 10
144.8880181507
 20
146.4701832428
 30
0.0
 10
144.9123100878
 20
147.2134390652
 30
0.0
 10
144.9491789872
 20
147.8888775722
 30
0.0
 10
144.9708484996
 20
148.2296277544
 30
0.0
 10
145.0114418566
 20
148.7480017139
 30
0.0
 10
144.9708491152
 20
148.2296358819
 30
0.0
 10
144.9491795665
 20
147.8888873834
 30
0.0
 10
144.9123105001
 20
147.2134489298
 30
0.0
 10
144.8880182465
 20
146.4701901203
 30
0.0
 10
144.8826327091
 20
145.9390401957
 30
0.0
 10
144.8818186059
 20
145.6474514563
 30
0.0
  0
SPLINE
  5
2B3
100
AcDbEntity
  8
GIANNI_ASSI
100
AcDbSpline
 62
7
  6
CONTINUOUS
 70
0
 71
3
 72
16
 73
12
 74
0
 42
0.0000001
 43
0.0000001
 44
0.0000000001
 40
0.0
 40
0.0
 40
0.0
 40
0.0
 40
0.0039549429
 40
0.0158089212
 40
0.0355538899
 40
0.0631818189
 40
0.1420545044
 40
0.2523630378
 40
0.3940179329
 40
0.5664716064
 40
1.0
 40
1.0
 40
1.0
 40
1.0
 10
145.0036408989
 20
142.0974499101
 30
0.0
 10
145.0031718431
 20
142.0979665875
 30
0.0
 10
145.0038727954
 20
142.1011751886
 30
0.0
 10
145.0023254783
 20
142.1070016089
 30
0.0
 10
145.0018526031
 20
142.1176397201
 30
0.0
 10
144.9994062659
 20
142.1396701937
 30
0.0
 10
144.9960499748
 20
142.1778624863
 30
0.0
 10
144.9905375229
 20
142.2359356154
 30
0.0
 10
144.9837715526
 20
142.3105316624
 30
0.0
 10
144.9720258286
 20
142.4419172513
 30
0.0
 10
144.9630067502
 20
142.5484634009
 30
0.0
 10
144.9567791234
 20
142.6247035789
 30
0.0
  0
LINE
  5
2B4
100
AcDbEntity
  8
GIANNI_ASSI
100
AcDbLine
 62
7
  6
CONTINUOUS
 10
71.0036407767
 20
142.5977250024
 11
71.0098583006
 21
142.6737292443
  0
LINE
  5
2B5
100
AcDbEntity
  8
GIANNI_ASSI
100
AcDbLine
 62
7
  6
CONTINUOUS
 10
71.0036407767
 20
148.6971779102
 11
71.0098583006
 21
148.6211736683
  0
LINE
  5
2B6
100
AcDbEntity
  8
GIANNI_ASSI
100
AcDbLine
 62
7
  6
CONTINUOUS
 10
71.0063096398
 20
148.6649994046
 11
71.0036407771
 21
148.6971779144
  0
LINE
  5
2B7
100
AcDbEntity
  8
GIANNI_ASSI
100
AcDbLine
 62
7
  6
CONTINUOUS
 10
71.0063096398
 20
142.629903508
 11
71.0036407771
 21
142.5977249982
  0
LINE
  5
2B8
100
AcDbEntity
  8
GIANNI_ASSI
100
AcDbLine
 62
7
  6
CONTINUOUS
 10
144.971642489
 20
148.8470806051
 11
145.0036408992
 21
149.1974530027
  0
SPLINE
  5
2B9
100
AcDbEntity
  8
0
100
AcDbSpline
 62
7
  6
CONTINUOUS
 70
0
 71
3
 72
15
 73
11
 74
0
 42
0.0000001
 43
0.0000001
 44
0.0000000001
 40
0.0
 40
0.0
 40
0.0
 40
0.0
 40
0.1273537383
 40
0.2523608864
 40
0.3765150505
 40
0.5000073982
 40
0.6235005213
 40
0.7476558613
 40
0.8726611221
 40
1.0
 40
1.0
 40
1.0
 40
1.0
 10
114.1060961601
 20
170.1245041144
 30
0.0
 10
113.6879873533
 20
169.7396354708
 30
0.0
 10
112.7854796482
 20
169.0526791392
 30
0.0
 10
111.2712625231
 20
168.3034498209
 30
0.0
 10
109.6619943929
 20
167.8484274475
 30
0.0
 10
108.0035373486
 20
167.6970889416
 30
0.0
 10
106.3450784805
 20
167.8484654918
 30
0.0
 10
104.735820401
 20
168.3035261022
 30
0.0
 10
103.2216854693
 20
169.0527627718
 30
0.0
 10
102.3192437422
 20
169.739678565
 30
0.0
 10
101.9011853933
 20
170.1245041144
 30
0.0
  0
ENDSEC
  0
SECTION
  2
OBJECTS
  0
DICTIONARY
  5
C
100
AcDbDictionary
280
0
281
1
  3
ACAD_GROUP
350
D
  3
ACAD_MLINESTYLE
350
17
  3
ACAD_LAYOUT
350
1A
  3
ACAD_PLOTSETTINGS
350
19
  3
ACAD_PLOTSTYLENAME
350
E
  0
DICTIONARY
  5
D
102
{ACAD_REACTORS
330
C
102
}
100
AcDbDictionary
280
0
281
1
  0
ACDBDICTIONARYWDFLT
  5
E
102
{ACAD_REACTORS
330
C
102
}
100
AcDbDictionary
281
1
  3
Normal
350
F
100
AcDbDictionaryWithDefault
340
F
  0
DICTIONARY
  5
17
102
{ACAD_REACTORS
330
C
102
}
100
AcDbDictionary
280
0
281
1
  3
Standard
350
18
  0
DICTIONARY
  5
19
102
{ACAD_REACTORS
330
C
102
}
100
AcDbDictionary
281
1
  0
DICTIONARY
  5
1A
102
{ACAD_REACTORS
330
C
102
}
100
AcDbDictionary
281
1
  3
Model
350
2BA
  3
Layout1
350
2BB
  0
ACDBPLACEHOLDER
  5
F
102
{ACAD_REACTORS
330
E
102
}
  0
MLINESTYLE
  5
18
102
{ACAD_REACTORS
330
17
102
}
100
AcDbMlineStyle
  2
STANDARD
 70
0
  3

 62
256
 51
90.0
 52
90.0
 71
2
 49
0.5
 62
256
  6
BYLAYER
 49
-0.5
 62
256
  6
BYLAYER
  0
LAYOUT
  5
2BA
102
{ACAD_REACTORS
330
1A
102
}
100
AcDbPlotSettings
  1

  2
none_device
  4

  6

 40
0.0
 41
0.0
 42
0.0
 43
0.0
 44
210.0
 45
297.0
 46
0.0
 47
0.0
 48
0.0
 49
0.0
140
0.0
141
0.0
142
1.0
143
1.0
 70
1024
 72
1
 73
0
 74
0
  7

 75
0
147
1.0
148
0.0
149
0.0
100
AcDbLayout
  1
Model
 70
0
 71
0
 10
0.0
 20
0.0
 11
210.0
 21
297.0
 12
0.0
 22
0.0
 32
0.0
 14
0.0
 24
0.0
 34
0.0
 15
0.0
 25
0.0
 35
0.0
146
0.0
 13
0.0
 23
0.0
 33
0.0
 16
1.0
 26
0.0
 36
0.0
 17
0.0
 27
1.0
 37
0.0
 76
0
330
210
345
0
346
0
  0
LAYOUT
  5
2BB
102
{ACAD_REACTORS
330
1A
102
}
100
AcDbPlotSettings
  1

  2
none_device
  4

  6

 40
0.0
 41
0.0
 42
0.0
 43
0.0
 44
210.0
 45
297.0
 46
0.0
 47
0.0
 48
0.0
 49
0.0
140
0.0
141
0.0
142
1.0
143
1.0
 70
0
 72
1
 73
0
 74
0
  7

 75
0
147
1.0
148
0.0
149
0.0
100
AcDbLayout
  1
Layout1
 70
0
 71
1
 10
0.0
 20
0.0
 11
210.0
 21
297.0
 12
0.0
 22
0.0
 32
0.0
 14
0.0
 24
0.0
 34
0.0
 15
0.0
 25
0.0
 35
0.0
146
0.0
 13
0.0
 23
0.0
 33
0.0
 16
1.0
 26
0.0
 36
0.0
 17
0.0
 27
1.0
 37
0.0
 76
0
330
211
345
0
346
0
  0
ENDSEC
  0
EOF
