999
DXF file: 334662_M3-12.dxf
999
Pro/ENGINEER 2016050 by Parametric Technology Corporation
  0
SECTION
  2
HEADER
  9
$ACADVER
  1
AC1027
  9
$DWGCODEPAGE
  3
ANSI_1252
  9
$EXTMAX
 10
210.0
 20
297.0
 30
0.0
  9
$EXTMIN
 10
0.0
 20
0.0
 30
0.0
  9
$LIMMIN
 10
0.0
 20
0.0
  9
$LIMMAX
 10
210.0
 20
297.0
  9
$VIEWCTR
 10
105.0
 20
148.5
  9
$VIEWSIZE
 40
297.0
  9
$CLAYER
  8
0
  9
$LTSCALE
 40
19.36
  9
$CELTYPE
  6
BYLAYER
  9
$DIMSCALE
 40
1.0
  9
$DIMASZ
 40
4.76
  9
$DIMEXO
 40
0.1
  9
$DIMDLI
 40
13.376
  9
$DIMEXE
 40
1.0
  9
$DIMCEN
 40
3.168
  9
$DIMLFAC
 40
1.0
  9
$DIMBLK
  1
_FILLED
  9
$DIMALT
 70
0
  9
$DIMALTF
 40
0.0393700787
  9
$DIMTXT
 40
3.0
  9
$DIMTOL
 70
1
  9
$DIMLIM
 70
0
  9
$DIMTFAC
 40
1.0
  9
$DIMTP
 40
0.001
  9
$DIMTM
 40
0.001
  9
$DIMGAP
 40
0.625
  9
$DIMDSEP
 70
46
  9
$AUNITS
 70
0
  9
$PDMODE
 70
3
  9
$PDSIZE
 40
0.3125
  9
$HANDSEED
  5
2B9
  9
$TILEMODE
 70
1
  9
$MEASUREMENT
 70
1
  9
$INSUNITS
 70
4
  0
ENDSEC
  0
SECTION
  2
CLASSES
  0
CLASS
  1
ACDBDICTIONARYWDFLT
  2
AcDbDictionaryWithDefault
  3
AutoCAD 2000
 90
0
 91
1
280
0
281
0
  0
CLASS
  1
ACDBPLACEHOLDER
  2
AcDbPlaceHolder
  3
AutoCAD 2000
 90
0
 91
1
280
0
281
0
  0
CLASS
  1
LAYOUT
  2
AcDbLayout
  3
AutoCAD 2000
 90
0
 91
0
280
0
281
0
  0
ENDSEC
  0
SECTION
  2
TABLES
  0
TABLE
  2
VPORT
  5
8
100
AcDbSymbolTable
 70
2
  0
VPORT
  5
1F4
100
AcDbSymbolTableRecord
100
AcDbViewportTableRecord
  2
*ACTIVE
 70
0
 10
0.0
 20
0.0
 11
1.0
 21
1.0
 12
105.0
 22
148.5
 13
0.0
 23
0.0
 14
1.0
 24
1.0
 15
0.0
 25
0.0
 16
0.0
 26
0.0
 36
1.0
 17
0.0
 27
0.0
 37
0.0
 40
297.0
 41
0.7070707071
 42
50.0
 43
0.0
 44
0.0
 50
0.0
 51
0.0
 71
0
 72
100
 73
1
 74
1
 75
0
 76
0
 77
0
 78
0
  0
ENDTAB
  0
TABLE
  2
LTYPE
  5
5
100
AcDbSymbolTable
 70
6
  0
LTYPE
  5
14
100
AcDbSymbolTableRecord
100
AcDbLinetypeTableRecord
  2
BYBLOCK
 70
0
  3

 72
65
 73
0
 40
0.0
  0
LTYPE
  5
15
100
AcDbSymbolTableRecord
100
AcDbLinetypeTableRecord
  2
BYLAYER
 70
0
  3

 72
65
 73
0
 40
0.0
  0
LTYPE
  5
16
100
AcDbSymbolTableRecord
100
AcDbLinetypeTableRecord
  2
CONTINUOUS
 70
64
  3
Solid line
 72
65
 73
0
 40
0.0
  0
LTYPE
  5
1F5
100
AcDbSymbolTableRecord
100
AcDbLinetypeTableRecord
  2
CENTER
 70
64
  3
____ _ ____ _ ____ _ ____ _ ____ _ ____ _ ____
 72
65
 73
4
 40
0.6
 49
0.375
 74
0
 49
-0.075
 74
0
 49
0.075
 74
0
 49
-0.075
 74
0
  0
LTYPE
  5
1F6
100
AcDbSymbolTableRecord
100
AcDbLinetypeTableRecord
  2
HIDDEN
 70
64
  3
- - - - - - - - - - - - - - - - - - - -
 72
65
 73
2
 40
0.2
 49
0.1
 74
0
 49
-0.1
 74
0
  0
LTYPE
  5
1F7
100
AcDbSymbolTableRecord
100
AcDbLinetypeTableRecord
  2
PHANTOM
 70
64
  3
_____ _ _ _____ _ _ _____ _ _ _____
 72
65
 73
6
 40
0.8
 49
0.45
 74
0
 49
-0.05
 74
0
 49
0.1
 74
0
 49
-0.05
 74
0
 49
0.1
 74
0
 49
-0.05
 74
0
  0
LTYPE
  5
1F8
100
AcDbSymbolTableRecord
100
AcDbLinetypeTableRecord
  2
DOT
 70
64
  3
. . . . . . . . . . . . . . . . . . . .
 72
65
 73
2
 40
0.2
 49
0.1
 74
0
 49
-0.1
 74
0
  0
LTYPE
  5
1F9
100
AcDbSymbolTableRecord
100
AcDbLinetypeTableRecord
  2
DASHED
 70
64
  3
- - - - - - - - - - - - - - - - - - - -
 72
65
 73
2
 40
0.2
 49
0.1
 74
0
 49
-0.1
 74
0
  0
ENDTAB
  0
TABLE
  2
LAYER
  5
2
100
AcDbSymbolTable
 70
36
  0
LAYER
  5
10
100
AcDbSymbolTableRecord
100
AcDbLayerTableRecord
  2
0
 70
0
 62
7
  6
CONTINUOUS
370
-3
390
F
  0
LAYER
  5
1FA
100
AcDbSymbolTableRecord
100
AcDbLayerTableRecord
  2
DEFAULT_1
 70
0
 62
7
  6
CENTER
370
-3
390
F
  0
LAYER
  5
1FB
100
AcDbSymbolTableRecord
100
AcDbLayerTableRecord
  2
DEFAULT_2
 70
0
 62
8
  6
HIDDEN
370
-3
390
F
  0
LAYER
  5
1FC
100
AcDbSymbolTableRecord
100
AcDbLayerTableRecord
  2
DEFAULT_3
 70
0
 62
7
  6
PHANTOM
370
-3
390
F
  0
LAYER
  5
1FD
100
AcDbSymbolTableRecord
100
AcDbLayerTableRecord
  2
0_COMPONENTS
 70
0
 62
7
  6
CONTINUOUS
370
-3
390
F
  0
LAYER
  5
1FE
100
AcDbSymbolTableRecord
100
AcDbLayerTableRecord
  2
1_ALL_PLANES
 70
0
 62
7
  6
CONTINUOUS
370
-3
390
F
  0
LAYER
  5
1FF
100
AcDbSymbolTableRecord
100
AcDbLayerTableRecord
  2
1__DEF_ASM_PLN
 70
0
 62
7
  6
CONTINUOUS
370
-3
390
F
  0
LAYER
  5
200
100
AcDbSymbolTableRecord
100
AcDbLayerTableRecord
  2
1__DEF_PLANES
 70
0
 62
7
  6
CONTINUOUS
370
-3
390
F
  0
LAYER
  5
201
100
AcDbSymbolTableRecord
100
AcDbLayerTableRecord
  2
2_ALL_CSYS
 70
0
 62
7
  6
CONTINUOUS
370
-3
390
F
  0
LAYER
  5
202
100
AcDbSymbolTableRecord
100
AcDbLayerTableRecord
  2
2__DEF_ASM_CSYS
 70
0
 62
7
  6
CONTINUOUS
370
-3
390
F
  0
LAYER
  5
203
100
AcDbSymbolTableRecord
100
AcDbLayerTableRecord
  2
2__DEF_CSYS
 70
0
 62
7
  6
CONTINUOUS
370
-3
390
F
  0
LAYER
  5
204
100
AcDbSymbolTableRecord
100
AcDbLayerTableRecord
  2
3_ALL_AXES
 70
0
 62
7
  6
CONTINUOUS
370
-3
390
F
  0
LAYER
  5
205
100
AcDbSymbolTableRecord
100
AcDbLayerTableRecord
  2
4_ALL_POINTS
 70
0
 62
7
  6
CONTINUOUS
370
-3
390
F
  0
LAYER
  5
206
100
AcDbSymbolTableRecord
100
AcDbLayerTableRecord
  2
5_ALL_CURVES
 70
0
 62
7
  6
CONTINUOUS
370
-3
390
F
  0
LAYER
  5
207
100
AcDbSymbolTableRecord
100
AcDbLayerTableRecord
  2
5_ALL_GTOLS(FREE)
 70
0
 62
7
  6
CONTINUOUS
370
-3
390
F
  0
LAYER
  5
208
100
AcDbSymbolTableRecord
100
AcDbLayerTableRecord
  2
6_ALL_SURFS
 70
0
 62
7
  6
CONTINUOUS
370
-3
390
F
  0
LAYER
  5
209
100
AcDbSymbolTableRecord
100
AcDbLayerTableRecord
  2
CURVE
 70
0
 62
7
  6
CONTINUOUS
370
-3
390
F
  0
LAYER
  5
20A
100
AcDbSymbolTableRecord
100
AcDbLayerTableRecord
  2
GIANNI_ASSI
 70
0
 62
7
  6
CONTINUOUS
370
-3
390
F
  0
LAYER
  5
20B
100
AcDbSymbolTableRecord
100
AcDbLayerTableRecord
  2
GIANNI_CURVE
 70
0
 62
7
  6
CONTINUOUS
370
-3
390
F
  0
LAYER
  5
20C
100
AcDbSymbolTableRecord
100
AcDbLayerTableRecord
  2
XSEC_DATUMS
 70
0
 62
7
  6
CONTINUOUS
370
-3
390
F
  0
ENDTAB
  0
TABLE
  2
STYLE
  5
3
100
AcDbSymbolTable
 70
1
  0
STYLE
  5
11
100
AcDbSymbolTableRecord
100
AcDbTextStyleTableRecord
  2
STANDARD
 70
0
 40
0.0
 41
1.2
 50
0.0
 71
0
 42
0.2
  3
txt
  4

  0
STYLE
  5
20D
100
AcDbSymbolTableRecord
100
AcDbTextStyleTableRecord
  2
TEXTSTYLE_1
 70
0
 40
0.0
 41
0.8
 50
0.0
 71
0
 42
0.2
  3
gdt
  4

  0
STYLE
  5
20E
100
AcDbSymbolTableRecord
100
AcDbTextStyleTableRecord
  2
TEXTSTYLE_2
 70
0
 40
0.0
 41
1.2
 50
0.0
 71
0
 42
0.2
  3
gdt
  4

  0
ENDTAB
  0
TABLE
  2
VIEW
  5
6
100
AcDbSymbolTable
 70
0
  0
ENDTAB
  0
TABLE
  2
UCS
  5
7
100
AcDbSymbolTable
 70
0
  0
ENDTAB
  0
TABLE
  2
APPID
  5
9
100
AcDbSymbolTable
 70
1
  0
APPID
  5
20F
100
AcDbSymbolTableRecord
100
AcDbRegAppTableRecord
  2
ACAD
 70
0
  0
ENDTAB
  0
TABLE
  2
BLOCK_RECORD
  5
1
100
AcDbSymbolTable
 70
0
  0
BLOCK_RECORD
  5
210
100
AcDbSymbolTableRecord
100
AcDbBlockTableRecord
  2
*Model_Space
  0
BLOCK_RECORD
  5
211
100
AcDbSymbolTableRecord
100
AcDbBlockTableRecord
  2
*Paper_Space
  0
BLOCK_RECORD
  5
212
100
AcDbSymbolTableRecord
100
AcDbBlockTableRecord
  2
_FILLED
  0
BLOCK_RECORD
  5
213
100
AcDbSymbolTableRecord
100
AcDbBlockTableRecord
  2
*D0
  0
BLOCK_RECORD
  5
214
100
AcDbSymbolTableRecord
100
AcDbBlockTableRecord
  2
*D1
  0
BLOCK_RECORD
  5
215
100
AcDbSymbolTableRecord
100
AcDbBlockTableRecord
  2
*D2
  0
BLOCK_RECORD
  5
216
100
AcDbSymbolTableRecord
100
AcDbBlockTableRecord
  2
*D3
  0
ENDTAB
  0
TABLE
  2
DIMSTYLE
  5
A
100
AcDbSymbolTable
 70
1
100
AcDbDimStyleTable
 71
0
  0
DIMSTYLE
105
217
100
AcDbSymbolTableRecord
100
AcDbDimStyleTableRecord
  2
STANDARD
 70
0
  3

  4

 40
1.0
 41
4.76
 42
0.1
 43
0.38
 44
1.0
 45
0.0
 46
0.0
 47
0.001
 48
0.001
140
3.0
141
0.09
142
0.0
143
25.4
144
1.0
145
0.0
146
1.0
147
0.625
 71
1.0
 72
0.0
 73
0
 74
0
 75
0
 76
0
 77
1
 78
8
170
0
171
2
172
0
173
0
174
0
175
0
176
0
177
0
178
5
270
2
271
3
272
3
273
2
274
2
275
0
280
0
281
0
282
0
283
1
284
8
285
0
286
0
287
3
288
0
340
11
278
46
341
212
342
212
343
212
344
212
  0
DIMSTYLE
105
218
100
AcDbSymbolTableRecord
100
AcDbDimStyleTableRecord
  2
DIMSTYLE_1
 70
0
  3

  4

 40
1.0
 41
4.76
 42
0.1
 43
0.38
 44
1.0
 45
0.0
 46
0.0
 47
0.001
 48
0.001
140
3.0
141
0.09
142
0.0
143
25.4
144
1.0
145
0.0
146
1.0
147
0.75
 71
0.0
 72
0.0
 73
0
 74
0
 75
0
 76
0
 77
1
 78
8
170
0
171
2
172
0
173
0
174
0
175
0
176
0
177
0
178
5
270
2
271
3
272
3
273
2
274
2
275
0
280
0
281
0
282
0
283
1
284
8
285
0
286
0
287
3
288
0
340
11
278
46
341
212
342
212
343
212
344
212
  0
DIMSTYLE
105
219
100
AcDbSymbolTableRecord
100
AcDbDimStyleTableRecord
  2
DIMSTYLE_2
 70
0
  3

  4

 40
1.0
 41
4.76
 42
0.1
 43
0.38
 44
1.0
 45
0.0
 46
0.0
 47
0.01
 48
0.01
140
3.0
141
0.09
142
0.0
143
25.4
144
1.0
145
0.0
146
1.0
147
0.75
 71
0.0
 72
0.0
 73
0
 74
0
 75
0
 76
0
 77
1
 78
8
170
0
171
2
172
0
173
0
174
0
175
0
176
0
177
0
178
5
270
2
271
3
272
3
273
2
274
2
275
0
280
0
281
0
282
0
283
1
284
8
285
0
286
0
287
3
288
0
340
11
278
46
341
212
342
212
343
212
344
212
  0
ENDTAB
  0
ENDSEC
  0
SECTION
  2
BLOCKS
  0
BLOCK
  5
20
100
AcDbEntity
  8
0
100
AcDbBlockBegin
  2
*Model_Space
 70
0
 10
0.0
 20
0.0
 30
0.0
  3
*Model_Space
  1

  0
ENDBLK
  5
21
100
AcDbEntity
  8
0
100
AcDbBlockEnd
  0
BLOCK
  5
1C
100
AcDbEntity
  8
0
100
AcDbBlockBegin
  2
*Paper_Space
 70
0
 10
0.0
 20
0.0
 30
0.0
  3
*Paper_Space
  1

  0
ENDBLK
  5
1D
100
AcDbEntity
  8
0
100
AcDbBlockEnd
  0
BLOCK
  5
21A
100
AcDbEntity
  8
0
100
AcDbBlockBegin
  2
_FILLED
 70
64
 10
0.0
 20
0.0
  3
_FILLED
  1

  0
SOLID
  5
21B
100
AcDbEntity
  8
0
  6
BYBLOCK
 62
0
100
AcDbTrace
 10
0.0
 20
0.0
 11
-1.0
 21
0.1050420168
 12
-1.0
 22
-0.1050420168
 13
-1.0
 23
-0.1050420168
  0
ENDBLK
  5
21C
100
AcDbEntity
  8
0
  6
BYBLOCK
 62
0
100
AcDbBlockEnd
  0
BLOCK
  5
21D
100
AcDbEntity
  8
0
100
AcDbBlockBegin
 62
2
  6
CONTINUOUS
  2
*D0
 70
65
 10
0.0
 20
0.0
  3
*D0
  1

  0
MTEXT
  5
21E
100
AcDbEntity
  8
0
100
AcDbMText
 62
5
  6
CONTINUOUS
  7
STANDARD
 71
2
 72
1
 10
153.228876288
 20
135.6294916668
 30
0.0
 11
0.0
 21
1.0
 31
0.0
 44
0.9
  1
63.5
 40
3.0
 41
12.5357142857
  0
LINE
  5
21F
100
AcDbEntity
  8
0
100
AcDbLine
 62
2
  6
CONTINUOUS
 10
120.8148058252
 20
166.7830097087
 11
157.978876288
 21
166.7830097087
  0
LINE
  5
220
100
AcDbEntity
  8
0
100
AcDbLine
 62
2
  6
CONTINUOUS
 10
122.8619002446
 20
103.2830097087
 11
157.978876288
 21
103.2830097087
  0
LINE
  5
221
100
AcDbEntity
  8
0
100
AcDbLine
 62
2
  6
CONTINUOUS
 10
156.978876288
 20
166.7830097087
 11
156.978876288
 21
135.0330097087
  0
LINE
  5
222
100
AcDbEntity
  8
0
100
AcDbLine
 62
2
  6
CONTINUOUS
 10
156.978876288
 20
103.2830097087
 11
156.978876288
 21
135.0330097087
  0
INSERT
  5
223
100
AcDbEntity
  8
0
100
AcDbBlockReference
 62
2
  6
CONTINUOUS
  2
_FILLED
 10
156.978876288
 20
166.7830097087
 41
4.76
 42
4.76
 43
4.76
 50
90.0
  0
INSERT
  5
224
100
AcDbEntity
  8
0
100
AcDbBlockReference
 62
2
  6
CONTINUOUS
  2
_FILLED
 10
156.978876288
 20
103.2830097087
 41
4.76
 42
4.76
 43
4.76
 50
270.0
  0
ENDBLK
  5
225
100
AcDbEntity
  8
0
  6
BYBLOCK
 62
0
100
AcDbBlockEnd
  0
BLOCK
  5
226
100
AcDbEntity
  8
0
100
AcDbBlockBegin
 62
2
  6
CONTINUOUS
  2
*D1
 70
65
 10
0.0
 20
0.0
  3
*D1
  1

  0
MTEXT
  5
227
100
AcDbEntity
  8
0
100
AcDbMText
 62
5
  6
CONTINUOUS
  7
STANDARD
 71
2
 72
1
 10
143.6806008196
 20
123.546245591
 30
0.0
 11
0.0
 21
1.0
 31
0.0
 44
0.9
  1
41.5
 40
3.0
 41
11.8928571429
  0
LINE
  5
228
100
AcDbEntity
  8
0
100
AcDbLine
 62
2
  6
CONTINUOUS
 10
127.9398058252
 20
144.7830097087
 11
148.4306008196
 21
144.7830097087
  0
LINE
  5
229
100
AcDbEntity
  8
0
100
AcDbLine
 62
2
  6
CONTINUOUS
 10
122.8619002446
 20
103.2830097087
 11
148.4306008196
 21
103.2830097087
  0
LINE
  5
22A
100
AcDbEntity
  8
0
100
AcDbLine
 62
2
  6
CONTINUOUS
 10
147.4306008196
 20
144.7830097087
 11
147.4306008196
 21
124.0330097087
  0
LINE
  5
22B
100
AcDbEntity
  8
0
100
AcDbLine
 62
2
  6
CONTINUOUS
 10
147.4306008196
 20
103.2830097087
 11
147.4306008196
 21
124.0330097087
  0
INSERT
  5
22C
100
AcDbEntity
  8
0
100
AcDbBlockReference
 62
2
  6
CONTINUOUS
  2
_FILLED
 10
147.4306008196
 20
144.7830097087
 41
4.76
 42
4.76
 43
4.76
 50
90.0
  0
INSERT
  5
22D
100
AcDbEntity
  8
0
100
AcDbBlockReference
 62
2
  6
CONTINUOUS
  2
_FILLED
 10
147.4306008196
 20
103.2830097087
 41
4.76
 42
4.76
 43
4.76
 50
270.0
  0
ENDBLK
  5
22E
100
AcDbEntity
  8
0
  6
BYBLOCK
 62
0
100
AcDbBlockEnd
  0
BLOCK
  5
22F
100
AcDbEntity
  8
0
100
AcDbBlockBegin
 62
2
  6
CONTINUOUS
  2
*D2
 70
65
 10
0.0
 20
0.0
  3
*D2
  1

  0
MTEXT
  5
230
100
AcDbEntity
  8
0
100
AcDbMText
 62
5
  6
CONTINUOUS
  7
TEXTSTYLE_2
 71
2
 72
1
 10
104.8398058252
 20
91.3909671769
 30
0.0
 11
1.0
 21
0.0
 31
0.0
 44
0.9
  1
{\Fgdt;n}\Ftxt;19
 40
3.0
 41
12.1071428571
  0
LINE
  5
231
100
AcDbEntity
  8
0
100
AcDbLine
 62
2
  6
CONTINUOUS
 10
114.3398058252
 20
110.6830097087
 11
114.3398058252
 21
86.6409671769
  0
LINE
  5
232
100
AcDbEntity
  8
0
100
AcDbLine
 62
2
  6
CONTINUOUS
 10
95.3398058252
 20
110.6830097087
 11
95.3398058252
 21
86.6409671769
  0
LINE
  5
233
100
AcDbEntity
  8
0
100
AcDbLine
 62
2
  6
CONTINUOUS
 10
114.3398058252
 20
87.6409671769
 11
122.3398058252
 21
87.6409671769
  0
LINE
  5
234
100
AcDbEntity
  8
0
100
AcDbLine
 62
2
  6
CONTINUOUS
 10
122.3398058252
 20
87.6409671769
 11
104.8398058252
 21
87.6409671769
  0
LINE
  5
235
100
AcDbEntity
  8
0
100
AcDbLine
 62
2
  6
CONTINUOUS
 10
95.3398058252
 20
87.6409671769
 11
87.3398058252
 21
87.6409671769
  0
LINE
  5
236
100
AcDbEntity
  8
0
100
AcDbLine
 62
2
  6
CONTINUOUS
 10
87.3398058252
 20
87.6409671769
 11
104.8398058252
 21
87.6409671769
  0
INSERT
  5
237
100
AcDbEntity
  8
0
100
AcDbBlockReference
 62
2
  6
CONTINUOUS
  2
_FILLED
 10
114.3398058252
 20
87.6409671769
 41
4.76
 42
4.76
 43
4.76
 50
180.0
  0
INSERT
  5
238
100
AcDbEntity
  8
0
100
AcDbBlockReference
 62
2
  6
CONTINUOUS
  2
_FILLED
 10
95.3398058252
 20
87.6409671769
 41
4.76
 42
4.76
 43
4.76
  0
ENDBLK
  5
239
100
AcDbEntity
  8
0
  6
BYBLOCK
 62
0
100
AcDbBlockEnd
  0
BLOCK
  5
23A
100
AcDbEntity
  8
0
100
AcDbBlockBegin
 62
2
  6
CONTINUOUS
  2
*D3
 70
65
 10
0.0
 20
0.0
  3
*D3
  1

  0
MTEXT
  5
23B
100
AcDbEntity
  8
0
100
AcDbMText
 62
5
  6
CONTINUOUS
  7
TEXTSTYLE_2
 71
2
 72
1
 10
104.8398058252
 20
81.3565753315
 30
0.0
 11
1.0
 21
0.0
 31
0.0
 44
0.9
  1
{\Fgdt;n}\Ftxt;38.5
 40
3.0
 41
18.5357142857
  0
LINE
  5
23C
100
AcDbEntity
  8
0
100
AcDbLine
 62
2
  6
CONTINUOUS
 10
124.0898058252
 20
107.0580097087
 11
124.0898058252
 21
76.6065753315
  0
LINE
  5
23D
100
AcDbEntity
  8
0
100
AcDbLine
 62
2
  6
CONTINUOUS
 10
85.5898058252
 20
107.0580097087
 11
85.5898058252
 21
76.6065753315
  0
LINE
  5
23E
100
AcDbEntity
  8
0
100
AcDbLine
 62
2
  6
CONTINUOUS
 10
124.0898058252
 20
77.6065753315
 11
104.8398058252
 21
77.6065753315
  0
LINE
  5
23F
100
AcDbEntity
  8
0
100
AcDbLine
 62
2
  6
CONTINUOUS
 10
85.5898058252
 20
77.6065753315
 11
104.8398058252
 21
77.6065753315
  0
INSERT
  5
240
100
AcDbEntity
  8
0
100
AcDbBlockReference
 62
2
  6
CONTINUOUS
  2
_FILLED
 10
124.0898058252
 20
77.6065753315
 41
4.76
 42
4.76
 43
4.76
  0
INSERT
  5
241
100
AcDbEntity
  8
0
100
AcDbBlockReference
 62
2
  6
CONTINUOUS
  2
_FILLED
 10
85.5898058252
 20
77.6065753315
 41
4.76
 42
4.76
 43
4.76
 50
180.0
  0
ENDBLK
  5
242
100
AcDbEntity
  8
0
  6
BYBLOCK
 62
0
100
AcDbBlockEnd
  0
ENDSEC
  0
SECTION
  2
ENTITIES
  0
DIMENSION
  5
243
100
AcDbEntity
  8
0
100
AcDbDimension
 62
2
  6
CONTINUOUS
  2
*D0
 10
156.978876288
 20
103.2830097087
 11
156.978876288
 21
135.2009140674
 70
160
 71
2
 42
63.5
  3
DIMSTYLE_1
100
AcDbAlignedDimension
 13
120.7148058252
 23
166.7830097087
 14
122.7619002446
 24
103.2830097087
 50
270.0
100
AcDbRotatedDimension
  0
DIMENSION
  5
244
100
AcDbEntity
  8
0
100
AcDbDimension
 62
2
  6
CONTINUOUS
  2
*D1
 10
147.4306008196
 20
103.2830097087
 11
147.4306008196
 21
123.1176754633
 70
160
 71
2
 42
41.5
  3
DIMSTYLE_1
100
AcDbAlignedDimension
 13
127.8398058252
 23
144.7830097087
 14
122.7619002446
 24
103.2830097087
 50
270.0
100
AcDbRotatedDimension
  0
DIMENSION
  5
245
100
AcDbEntity
  8
0
100
AcDbDimension
 62
2
  6
CONTINUOUS
  2
*D2
 10
95.3398058252
 20
87.6409671769
 11
104.8398058252
 21
87.6409671769
 70
160
 71
2
 42
19.0
  1
%%c<>
  3
DIMSTYLE_2
100
AcDbAlignedDimension
 13
114.3398058252
 23
110.7830097087
 14
95.3398058252
 24
110.7830097087
 50
180.0
100
AcDbRotatedDimension
  0
DIMENSION
  5
246
100
AcDbEntity
  8
0
100
AcDbDimension
 62
2
  6
CONTINUOUS
  2
*D3
 10
85.5898058252
 20
77.6065753315
 11
104.8398058252
 21
77.6065753315
 70
160
 71
2
 42
38.5
  1
%%c<>
  3
DIMSTYLE_2
100
AcDbAlignedDimension
 13
124.0898058252
 23
107.1580097087
 14
85.5898058252
 24
107.1580097087
 50
180.0
100
AcDbRotatedDimension
  0
LINE
  5
247
100
AcDbEntity
  8
0
100
AcDbLine
 62
7
  6
CONTINUOUS
 10
0.0
 20
0.0
 11
210.0
 21
0.0
  0
LINE
  5
248
100
AcDbEntity
  8
0
100
AcDbLine
 62
7
  6
CONTINUOUS
 10
0.0
 20
0.0
 11
0.0
 21
297.0
  0
LINE
  5
249
100
AcDbEntity
  8
0
100
AcDbLine
 62
7
  6
CONTINUOUS
 10
210.0
 20
0.0
 11
210.0
 21
297.0
  0
LINE
  5
24A
100
AcDbEntity
  8
0
100
AcDbLine
 62
7
  6
CONTINUOUS
 10
0.0
 20
297.0
 11
210.0
 21
297.0
  0
LINE
  5
24B
100
AcDbEntity
  8
0
100
AcDbLine
 62
7
  6
CONTINUOUS
 10
86.9177114444
 20
103.2830097087
 11
122.7619002061
 21
103.2830097087
  0
LINE
  5
24C
100
AcDbEntity
  8
0
100
AcDbLine
 62
7
  6
CONTINUOUS
 10
86.6579038232
 20
103.4330097087
 11
123.0217078272
 21
103.4330097087
  0
LINE
  5
24D
100
AcDbEntity
  8
0
100
AcDbLine
 62
7
  6
CONTINUOUS
 10
124.0898058252
 20
105.2830097087
 11
85.5898058252
 21
105.2830097087
  0
LINE
  5
24E
100
AcDbEntity
  8
0
100
AcDbLine
 62
7
  6
CONTINUOUS
 10
124.0898058252
 20
109.0330097087
 11
85.5898058252
 21
109.0330097087
  0
LINE
  5
24F
100
AcDbEntity
  8
0
100
AcDbLine
 62
7
  6
CONTINUOUS
 10
123.8398058252
 20
109.2830097087
 11
85.8398058252
 21
109.2830097087
  0
LINE
  5
250
100
AcDbEntity
  8
0
100
AcDbLine
 62
7
  6
CONTINUOUS
 10
123.8398058252
 20
113.2830097087
 11
85.8398058252
 21
113.2830097087
  0
LINE
  5
251
100
AcDbEntity
  8
0
100
AcDbLine
 62
7
  6
CONTINUOUS
 10
124.0898058252
 20
113.5330097087
 11
85.5898058252
 21
113.5330097087
  0
LINE
  5
252
100
AcDbEntity
  8
0
100
AcDbLine
 62
7
  6
CONTINUOUS
 10
85.8398058252
 20
113.2830097087
 11
85.5898058252
 21
113.5330097087
  0
LINE
  5
253
100
AcDbEntity
  8
0
100
AcDbLine
 62
7
  6
CONTINUOUS
 10
124.0898058252
 20
117.5330097087
 11
85.5898058252
 21
117.5330097087
  0
LINE
  5
254
100
AcDbEntity
  8
0
100
AcDbLine
 62
7
  6
CONTINUOUS
 10
123.8398058252
 20
117.7830097087
 11
85.8398058252
 21
117.7830097087
  0
LINE
  5
255
100
AcDbEntity
  8
0
100
AcDbLine
 62
7
  6
CONTINUOUS
 10
85.8398058252
 20
121.7830097087
 11
85.5898058252
 21
122.0330097087
  0
LINE
  5
256
100
AcDbEntity
  8
0
100
AcDbLine
 62
7
  6
CONTINUOUS
 10
86.6579038232
 20
103.4330097087
 11
85.5898058252
 21
105.2830097087
  0
LINE
  5
257
100
AcDbEntity
  8
0
100
AcDbLine
 62
7
  6
CONTINUOUS
 10
123.8398058252
 20
121.7830097087
 11
85.8398058252
 21
121.7830097087
  0
LINE
  5
258
100
AcDbEntity
  8
0
100
AcDbLine
 62
7
  6
CONTINUOUS
 10
124.0898058252
 20
122.0330097087
 11
85.5898058252
 21
122.0330097087
  0
LINE
  5
259
100
AcDbEntity
  8
0
100
AcDbLine
 62
7
  6
CONTINUOUS
 10
124.2398058252
 20
126.0828021705
 11
85.4398058252
 21
126.0828021705
  0
LINE
  5
25A
100
AcDbEntity
  8
0
100
AcDbLine
 62
7
  6
CONTINUOUS
 10
124.2398058252
 20
130.2830097087
 11
85.4398058252
 21
130.2830097087
  0
LINE
  5
25B
100
AcDbEntity
  8
0
100
AcDbLine
 62
7
  6
CONTINUOUS
 10
123.7398058252
 20
130.7830097087
 11
85.9398058252
 21
130.7830097087
  0
LINE
  5
25C
100
AcDbEntity
  8
0
100
AcDbLine
 62
7
  6
CONTINUOUS
 10
81.8398058252
 20
146.7822845203
 11
81.8398058252
 21
144.7830097087
  0
LINE
  5
25D
100
AcDbEntity
  8
0
100
AcDbLine
 62
7
  6
CONTINUOUS
 10
83.6614030249
 20
164.0830097087
 11
83.6614030249
 21
157.215801339
  0
LINE
  5
25E
100
AcDbEntity
  8
0
100
AcDbLine
 62
7
  6
CONTINUOUS
 10
124.0898058252
 20
109.0330097087
 11
123.8398058252
 21
109.2830097087
  0
LINE
  5
25F
100
AcDbEntity
  8
0
100
AcDbLine
 62
7
  6
CONTINUOUS
 10
85.4398058252
 20
126.0828021705
 11
85.4398058252
 21
130.2830097087
  0
LINE
  5
260
100
AcDbEntity
  8
0
100
AcDbLine
 62
7
  6
CONTINUOUS
 10
85.5898058252
 20
105.2830097087
 11
85.5898058252
 21
109.0330097087
  0
LINE
  5
261
100
AcDbEntity
  8
0
100
AcDbLine
 62
7
  6
CONTINUOUS
 10
85.5898058252
 20
113.5330097087
 11
85.5898058252
 21
117.5330097087
  0
LINE
  5
262
100
AcDbEntity
  8
0
100
AcDbLine
 62
7
  6
CONTINUOUS
 10
85.5898058252
 20
122.0330097087
 11
85.5898058252
 21
126.0828021705
  0
LINE
  5
263
100
AcDbEntity
  8
0
100
AcDbLine
 62
7
  6
CONTINUOUS
 10
85.8398058252
 20
109.2830097087
 11
85.8398058252
 21
113.2830097087
  0
LINE
  5
264
100
AcDbEntity
  8
0
100
AcDbLine
 62
7
  6
CONTINUOUS
 10
85.8398058252
 20
117.7830097087
 11
85.8398058252
 21
121.7830097087
  0
LINE
  5
265
100
AcDbEntity
  8
GIANNI_ASSI
100
AcDbLine
 62
7
  6
CONTINUOUS
 10
87.3398058252
 20
130.7830097087
 11
87.3398058252
 21
139.9330097087
  0
LINE
  5
266
100
AcDbEntity
  8
0
100
AcDbLine
 62
7
  6
CONTINUOUS
 10
87.3398058252
 20
144.2330097087
 11
87.3398058252
 21
144.7830097087
  0
LINE
  5
267
100
AcDbEntity
  8
0
100
AcDbLine
 62
7
  6
CONTINUOUS
 10
89.0898058252
 20
166.5665033578
 11
89.0898058252
 21
164.7830097087
  0
LINE
  5
268
100
AcDbEntity
  8
0
100
AcDbLine
 62
7
  6
CONTINUOUS
 10
95.8983973545
 20
214.3273175522
 11
88.9648058252
 21
166.7830097087
  0
LINE
  5
269
100
AcDbEntity
  8
0
100
AcDbLine
 62
7
  6
CONTINUOUS
 10
81.8398058252
 20
146.7820097646
 11
81.8510716162
 21
146.8113929583
  0
LINE
  5
26A
100
AcDbEntity
  8
0
100
AcDbLine
 62
7
  6
CONTINUOUS
 10
81.8394023912
 20
146.781881052
 11
81.8508759347
 21
146.8111173557
  0
LINE
  5
26B
100
AcDbEntity
  8
0
100
AcDbLine
 62
2
  6
CONTINUOUS
 10
122.3398058252
 20
140.0830097087
 11
122.2825632849
 21
140.0830097087
  0
LINE
  5
26C
100
AcDbEntity
  8
0
100
AcDbLine
 62
2
  6
CONTINUOUS
 10
87.3575511286
 20
140.0830097087
 11
87.3398058252
 21
140.0830097087
  0
LINE
  5
26D
100
AcDbEntity
  8
0
100
AcDbLine
 62
7
  6
CONTINUOUS
 10
124.0898058252
 20
117.5330097087
 11
123.8398058252
 21
117.7830097087
  0
LINE
  5
26E
100
AcDbEntity
  8
GIANNI_ASSI
100
AcDbLine
 62
7
  6
CONTINUOUS
 10
87.3437336212
 20
139.9651757419
 11
87.3398058252
 21
139.9330097087
  0
LINE
  5
26F
100
AcDbEntity
  8
0
100
AcDbLine
 62
2
  6
CONTINUOUS
 10
122.3398058252
 20
144.0830097087
 11
122.2825624027
 21
144.0830097087
  0
LINE
  5
270
100
AcDbEntity
  8
0
100
AcDbLine
 62
2
  6
CONTINUOUS
 10
87.3575517621
 20
144.0830097087
 11
87.3398058252
 21
144.0830097087
  0
LINE
  5
271
100
AcDbEntity
  8
0
100
AcDbLine
 62
7
  6
CONTINUOUS
 10
81.8398058252
 20
144.7830097087
 11
127.8398058252
 21
144.7830097087
  0
LINE
  5
272
100
AcDbEntity
  8
DEFAULT_2
100
AcDbLine
 62
8
  6
HIDDEN
 10
95.3398058252
 20
103.2830097087
 11
95.3398058252
 21
118.2830097087
  0
LINE
  5
273
100
AcDbEntity
  8
0
100
AcDbLine
 62
7
  6
CONTINUOUS
 10
127.0210237259
 20
149.1502180784
 11
82.6585879246
 21
149.1502180784
  0
LINE
  5
274
100
AcDbEntity
  8
0
100
AcDbLine
 62
7
  6
CONTINUOUS
 10
86.5025377699
 20
151.1830097087
 11
123.1770738806
 21
151.1830097087
  0
LINE
  5
275
100
AcDbEntity
  8
0
100
AcDbLine
 62
7
  6
CONTINUOUS
 10
88.9648058252
 20
166.7830097087
 11
89.0898058252
 21
166.5665033578
  0
LINE
  5
276
100
AcDbEntity
  8
0
100
AcDbLine
 62
7
  6
CONTINUOUS
 10
122.5896058166
 20
155.1830097087
 11
87.0900058339
 21
155.1830097087
  0
LINE
  5
277
100
AcDbEntity
  8
0
100
AcDbLine
 62
7
  6
CONTINUOUS
 10
124.2398058252
 20
130.2830097087
 11
123.7398058252
 21
130.7830097087
  0
LINE
  5
278
100
AcDbEntity
  8
3_ALL_AXES
100
AcDbLine
 62
7
  6
CENTER
 10
104.8398058252
 20
221.1830097087
 11
104.8398058252
 21
97.2830097087
  0
LINE
  5
279
100
AcDbEntity
  8
0
100
AcDbLine
 62
7
  6
CONTINUOUS
 10
83.6614030249
 20
157.215801339
 11
126.0182086256
 21
157.215801339
  0
LINE
  5
27A
100
AcDbEntity
  8
0
100
AcDbLine
 62
7
  6
CONTINUOUS
 10
85.4398058252
 20
130.2830097087
 11
85.9398058252
 21
130.7830097087
  0
LINE
  5
27B
100
AcDbEntity
  8
0
100
AcDbLine
 62
7
  6
CONTINUOUS
 10
83.6614030249
 20
164.0830097087
 11
126.0182086256
 21
164.0830097087
  0
LINE
  5
27C
100
AcDbEntity
  8
0
100
AcDbLine
 62
7
  6
CONTINUOUS
 10
84.2862285393
 20
164.7830097087
 11
125.3934006645
 21
164.7830097087
  0
LINE
  5
27D
100
AcDbEntity
  8
0
100
AcDbLine
 62
7
  6
CONTINUOUS
 10
89.0898058252
 20
166.5665033578
 11
120.5898058252
 21
166.5665033578
  0
LINE
  5
27E
100
AcDbEntity
  8
0
100
AcDbLine
 62
7
  6
CONTINUOUS
 10
88.9648058252
 20
166.7830097087
 11
120.7148058252
 21
166.7830097087
  0
LINE
  5
27F
100
AcDbEntity
  8
DEFAULT_2
100
AcDbLine
 62
8
  6
HIDDEN
 10
114.3398058252
 20
103.2830097087
 11
114.3398058252
 21
118.2830097087
  0
LINE
  5
280
100
AcDbEntity
  8
0
100
AcDbLine
 62
7
  6
CONTINUOUS
 10
120.7148058252
 20
166.7830097087
 11
120.5898058252
 21
166.5665033578
  0
LINE
  5
281
100
AcDbEntity
  8
0
100
AcDbLine
 62
7
  6
CONTINUOUS
 10
120.5898058252
 20
166.5665033578
 11
120.5898058252
 21
164.7830097087
  0
LINE
  5
282
100
AcDbEntity
  8
0
100
AcDbLine
 62
7
  6
CONTINUOUS
 10
85.5898058252
 20
117.5330097087
 11
85.8398058252
 21
117.7830097087
  0
LINE
  5
283
100
AcDbEntity
  8
GIANNI_ASSI
100
AcDbLine
 62
7
  6
CONTINUOUS
 10
122.3398058252
 20
130.7830097087
 11
122.3398058252
 21
139.6330097087
  0
LINE
  5
284
100
AcDbEntity
  8
0
100
AcDbLine
 62
7
  6
CONTINUOUS
 10
122.3398058252
 20
144.5330097087
 11
122.3398058252
 21
144.7830097087
  0
LINE
  5
285
100
AcDbEntity
  8
0
100
AcDbLine
 62
7
  6
CONTINUOUS
 10
123.8398058252
 20
109.2830097087
 11
123.8398058252
 21
113.2830097087
  0
LINE
  5
286
100
AcDbEntity
  8
0
100
AcDbLine
 62
7
  6
CONTINUOUS
 10
123.8398058252
 20
117.7830097087
 11
123.8398058252
 21
121.7830097087
  0
LINE
  5
287
100
AcDbEntity
  8
0
100
AcDbLine
 62
7
  6
CONTINUOUS
 10
124.0898058252
 20
105.2830097087
 11
124.0898058252
 21
109.0330097087
  0
LINE
  5
288
100
AcDbEntity
  8
0
100
AcDbLine
 62
7
  6
CONTINUOUS
 10
124.0898058252
 20
113.5330097087
 11
124.0898058252
 21
117.5330097087
  0
LINE
  5
289
100
AcDbEntity
  8
0
100
AcDbLine
 62
7
  6
CONTINUOUS
 10
124.0898058252
 20
122.0330097087
 11
124.0898058252
 21
126.0828021705
  0
LINE
  5
28A
100
AcDbEntity
  8
0
100
AcDbLine
 62
7
  6
CONTINUOUS
 10
124.2398058252
 20
126.0828021705
 11
124.2398058252
 21
130.2830097087
  0
LINE
  5
28B
100
AcDbEntity
  8
0
100
AcDbLine
 62
7
  6
CONTINUOUS
 10
113.7812142959
 20
214.3273175522
 11
120.7148058252
 21
166.7830097087
  0
LINE
  5
28C
100
AcDbEntity
  8
0
100
AcDbLine
 62
7
  6
CONTINUOUS
 10
126.0182086256
 20
164.0830097087
 11
126.0182086256
 21
157.215801339
  0
LINE
  5
28D
100
AcDbEntity
  8
0
100
AcDbLine
 62
7
  6
CONTINUOUS
 10
127.8398058252
 20
146.7819500922
 11
127.8398058252
 21
144.7830097087
  0
LINE
  5
28E
100
AcDbEntity
  8
0
100
AcDbLine
 62
7
  6
CONTINUOUS
 10
85.5898058252
 20
109.0330097087
 11
85.8398058252
 21
109.2830097087
  0
LINE
  5
28F
100
AcDbEntity
  8
0
100
AcDbLine
 62
7
  6
CONTINUOUS
 10
123.8398058252
 20
121.7830097087
 11
124.0898058252
 21
122.0330097087
  0
LINE
  5
290
100
AcDbEntity
  8
0
100
AcDbLine
 62
7
  6
CONTINUOUS
 10
123.0217078272
 20
103.4330097087
 11
124.0898058252
 21
105.2830097087
  0
LINE
  5
291
100
AcDbEntity
  8
0
100
AcDbLine
 62
7
  6
CONTINUOUS
 10
123.8398058252
 20
113.2830097087
 11
124.0898058252
 21
113.5330097087
  0
LINE
  5
292
100
AcDbEntity
  8
0
100
AcDbLine
 62
7
  6
CONTINUOUS
 10
95.8983973545
 20
214.3273175522
 11
113.7812142959
 21
214.3273175522
  0
LINE
  5
293
100
AcDbEntity
  8
0
100
AcDbLine
 62
7
  6
CONTINUOUS
 10
96.887930197
 20
215.1830097087
 11
112.7916814535
 21
215.1830097087
  0
ARC
  5
294
100
AcDbEntity
  8
0
100
AcDbCircle
 62
7
  6
CONTINUOUS
 10
-203.0245441554
 20
-531.3170555377
 40
756.4481705118
100
AcDbArc
 50
64.1979136091
 51
64.4544837672
  0
ARC
  5
295
100
AcDbEntity
  8
0
100
AcDbCircle
 62
7
  6
CONTINUOUS
 10
394.1780358152
 20
-492.7800849398
 40
713.6894838561
100
AcDbArc
 50
115.5377416516
 51
115.8096828589
  0
ARC
  5
296
100
AcDbEntity
  8
0
100
AcDbCircle
 62
7
  6
CONTINUOUS
 10
-53.6218976938
 20
489.6162837249
 40
378.0110413733
100
AcDbArc
 50
297.993756952
 51
298.2689428933
  0
ARC
  5
297
100
AcDbEntity
  8
0
100
AcDbCircle
 62
7
  6
CONTINUOUS
 10
263.2991024978
 20
489.612136127
 40
378.0062493352
100
AcDbArc
 50
241.7310807333
 51
242.0062700981
  0
ARC
  5
298
100
AcDbEntity
  8
0
100
AcDbCircle
 62
7
  6
CONTINUOUS
 10
291.4778132289
 20
-159.7084239501
 40
357.3231612905
100
AcDbArc
 50
117.9850335949
 51
118.2063453215
  0
ARC
  5
299
100
AcDbEntity
  8
0
100
AcDbCircle
 62
7
  6
CONTINUOUS
 10
-81.7982015784
 20
-159.7084239501
 40
357.3231612905
100
AcDbArc
 50
61.7936546785
 51
62.0149664051
  0
ARC
  5
29A
100
AcDbEntity
  8
0
100
AcDbCircle
 62
7
  6
CONTINUOUS
 10
37.5497186166
 20
24.7944912729
 40
153.1974582926
100
AcDbArc
 50
54.2657859402
 51
54.6294162483
  0
ARC
  5
29B
100
AcDbEntity
  8
0
100
AcDbCircle
 62
7
  6
CONTINUOUS
 10
172.1160597365
 20
24.8135496652
 40
153.173908924
100
AcDbArc
 50
125.3704898105
 51
125.7341772627
  0
ARC
  5
29C
100
AcDbEntity
  8
0
100
AcDbCircle
 62
7
  6
CONTINUOUS
 10
192.5861377359
 20
91.9334408656
 40
130.6528151863
100
AcDbArc
 50
146.2120822684
 51
146.4803041724
  0
ARC
  5
29D
100
AcDbEntity
  8
0
100
AcDbCircle
 62
7
  6
CONTINUOUS
 10
17.0934739171
 20
91.9334408673
 40
130.6528151833
100
AcDbArc
 50
33.5196958276
 51
33.7879177316
  0
ARC
  5
29E
100
AcDbEntity
  8
0
100
AcDbCircle
 62
7
  6
CONTINUOUS
 10
69.2287584552
 20
222.3576247956
 40
86.4204768207
100
AcDbArc
 50
310.5469893596
 51
311.0813226274
  0
ARC
  5
29F
100
AcDbEntity
  8
0
100
AcDbCircle
 62
7
  6
CONTINUOUS
 10
140.4501810469
 20
222.3567329945
 40
86.4193629124
100
AcDbArc
 50
228.9186247449
 51
229.4529652947
  0
ARC
  5
2A0
100
AcDbEntity
  8
0
100
AcDbCircle
 62
7
  6
CONTINUOUS
 10
114.5128604504
 20
119.2032465904
 40
54.6915357493
100
AcDbArc
 50
123.5507075505
 51
123.9108184674
  0
ARC
  5
2A1
100
AcDbEntity
  8
0
100
AcDbCircle
 62
7
  6
CONTINUOUS
 10
95.1780645068
 20
119.2229691035
 40
54.6688562078
100
AcDbArc
 50
56.0874897322
 51
56.447734743
  0
ARC
  5
2A2
100
AcDbEntity
  8
GIANNI_ASSI
100
AcDbCircle
 62
7
  6
CONTINUOUS
 10
69.4230934498
 20
142.0340938649
 40
18.0511791851
100
AcDbArc
 50
5.7513777293
 51
6.3530589551
  0
ARC
  5
2A3
100
AcDbEntity
  8
GIANNI_ASSI
100
AcDbCircle
 62
7
  6
CONTINUOUS
 10
69.6063499907
 20
142.1129031143
 40
17.8669390473
100
AcDbArc
 50
353.0959628936
 51
354.2504085307
  0
ARC
  5
2A4
100
AcDbEntity
  8
GIANNI_ASSI
100
AcDbCircle
 62
7
  6
CONTINUOUS
 10
139.7926589852
 20
142.0841332982
 40
17.624096827
100
AcDbArc
 50
180.0036527791
 51
185.6818961145
  0
ARC
  5
2A5
100
AcDbEntity
  8
GIANNI_ASSI
100
AcDbCircle
 62
7
  6
CONTINUOUS
 10
69.8576155189
 20
142.0794688299
 40
17.6142974103
100
AcDbArc
 50
0.0115177694
 51
5.7461659877
  0
ARC
  5
2A6
100
AcDbEntity
  8
GIANNI_ASSI
100
AcDbCircle
 62
7
  6
CONTINUOUS
 10
139.7772846364
 20
142.0826495656
 40
17.608722446
100
AcDbArc
 50
174.3155299188
 51
179.9988281556
  0
ARC
  5
2A7
100
AcDbEntity
  8
GIANNI_ASSI
100
AcDbCircle
 62
7
  6
CONTINUOUS
 10
69.9131033514
 20
142.0837584652
 40
17.5588092379
100
AcDbArc
 50
354.2447542046
 51
359.9975567484
  0
ARC
  5
2A8
100
AcDbEntity
  8
GIANNI_ASSI
100
AcDbCircle
 62
7
  6
CONTINUOUS
 10
139.6455678593
 20
142.0675893332
 40
17.4760905365
100
AcDbArc
 50
185.6756673234
 51
186.1463937547
  0
ARC
  5
2A9
100
AcDbEntity
  8
GIANNI_ASSI
100
AcDbCircle
 62
7
  6
CONTINUOUS
 10
139.6249604081
 20
142.1005206636
 40
17.4553773543
100
AcDbArc
 50
173.4290914766
 51
174.3243776513
  0
ARC
  5
2AA
100
AcDbEntity
  8
0
100
AcDbCircle
 62
7
  6
CONTINUOUS
 10
96.887930197
 20
214.1830097087
 40
1.0
100
AcDbArc
 50
90.0
 51
171.7028
  0
ARC
  5
2AB
100
AcDbEntity
  8
0
100
AcDbCircle
 62
7
  6
CONTINUOUS
 10
112.7916814535
 20
214.1830097087
 40
1.0
100
AcDbArc
 50
8.2972
 51
90.0
  0
ARC
  5
2AC
100
AcDbEntity
  8
0
100
AcDbCircle
 62
7
  6
CONTINUOUS
 10
86.9177114444
 20
103.5830097087
 40
0.3
100
AcDbArc
 50
210.0000000012
 51
270.0
  0
ARC
  5
2AD
100
AcDbEntity
  8
0
100
AcDbCircle
 62
7
  6
CONTINUOUS
 10
122.7619002061
 20
103.5830097087
 40
0.3
100
AcDbArc
 50
270.0
 51
329.9999999988
  0
SPLINE
  5
2AE
100
AcDbEntity
  8
0
100
AcDbSpline
 62
2
  6
CONTINUOUS
 70
0
 71
3
 72
36
 73
32
 74
0
 42
0.0000001
 43
0.0000001
 44
0.0000000001
 40
0.0
 40
0.0
 40
0.0
 40
0.0
 40
0.0344827586
 40
0.0689655172
 40
0.1034482759
 40
0.1379310345
 40
0.1724137931
 40
0.2068965517
 40
0.2413793103
 40
0.275862069
 40
0.3103448276
 40
0.3448275862
 40
0.3793103448
 40
0.4137931034
 40
0.4482758621
 40
0.4827586207
 40
0.5172413793
 40
0.5517241379
 40
0.5862068966
 40
0.6206896552
 40
0.6551724138
 40
0.6896551724
 40
0.724137931
 40
0.7586206897
 40
0.7931034483
 40
0.8275862069
 40
0.8620689655
 40
0.8965517241
 40
0.9310344828
 40
0.9655172414
 40
1.0
 40
1.0
 40
1.0
 40
1.0
 10
87.3398058252
 20
144.0830097087
 30
0.0
 10
87.3398152683
 20
144.0830097087
 30
0.0
 10
87.340693038
 20
144.0752309855
 30
0.0
 10
87.3446605862
 20
144.0402598765
 30
0.0
 10
87.3510563001
 20
143.9824567778
 30
0.0
 10
87.359623279
 20
143.9022092843
 30
0.0
 10
87.3699333753
 20
143.8007309932
 30
0.0
 10
87.381560915
 20
143.6786324552
 30
0.0
 10
87.3938945894
 20
143.5380796675
 30
0.0
 10
87.4064281465
 20
143.3798353433
 30
0.0
 10
87.4184801924
 20
143.2070002626
 30
0.0
 10
87.4295687966
 20
143.0203436314
 30
0.0
 10
87.4390846758
 20
142.8237107877
 30
0.0
 10
87.4466640586
 20
142.6177148421
 30
0.0
 10
87.4518929231
 20
142.4066582219
 30
0.0
 10
87.454580165
 20
142.1909435919
 30
0.0
 10
87.4545801663
 20
141.9750760028
 30
0.0
 10
87.4518929256
 20
141.7593613375
 30
0.0
 10
87.4466640649
 20
141.5483047745
 30
0.0
 10
87.43908468
 20
141.3423087314
 30
0.0
 10
87.4295688075
 20
141.1456759863
 30
0.0
 10
87.4184801966
 20
140.9590192184
 30
0.0
 10
87.4064281597
 20
140.7861842513
 30
0.0
 10
87.3938945923
 20
140.6279397832
 30
0.0
 10
87.3815609268
 20
140.487387092
 30
0.0
 10
87.3699333767
 20
140.365288437
 30
0.0
 10
87.3596232864
 20
140.2638102041
 30
0.0
 10
87.3510563004
 20
140.1835626416
 30
0.0
 10
87.3446605884
 20
140.1257595609
 30
0.0
 10
87.3406930378
 20
140.0907884289
 30
0.0
 10
87.3398152682
 20
140.0830097087
 30
0.0
 10
87.3398058252
 20
140.0830097087
 30
0.0
  0
SPLINE
  5
2AF
100
AcDbEntity
  8
0
100
AcDbSpline
 62
2
  6
CONTINUOUS
 70
0
 71
3
 72
36
 73
32
 74
0
 42
0.0000001
 43
0.0000001
 44
0.0000000001
 40
0.0
 40
0.0
 40
0.0
 40
0.0
 40
0.0344827586
 40
0.0689655172
 40
0.1034482759
 40
0.1379310345
 40
0.1724137931
 40
0.2068965517
 40
0.2413793103
 40
0.275862069
 40
0.3103448276
 40
0.3448275862
 40
0.3793103448
 40
0.4137931034
 40
0.4482758621
 40
0.4827586207
 40
0.5172413793
 40
0.5517241379
 40
0.5862068966
 40
0.6206896552
 40
0.6551724138
 40
0.6896551724
 40
0.724137931
 40
0.7586206897
 40
0.7931034483
 40
0.8275862069
 40
0.8620689655
 40
0.8965517241
 40
0.9310344828
 40
0.9655172414
 40
1.0
 40
1.0
 40
1.0
 40
1.0
 10
122.3398058252
 20
140.0830097087
 30
0.0
 10
122.3397963822
 20
140.0830097087
 30
0.0
 10
122.3389186125
 20
140.090788432
 30
0.0
 10
122.3349510643
 20
140.125759541
 30
0.0
 10
122.3285553504
 20
140.1835626397
 30
0.0
 10
122.3199883715
 20
140.2638101331
 30
0.0
 10
122.3096782752
 20
140.3652884243
 30
0.0
 10
122.2980507355
 20
140.4873869623
 30
0.0
 10
122.2857170611
 20
140.62793975
 30
0.0
 10
122.273183504
 20
140.7861840742
 30
0.0
 10
122.2611314581
 20
140.9590191549
 30
0.0
 10
122.2500428538
 20
141.145675786
 30
0.0
 10
122.2405269747
 20
141.3423086298
 30
0.0
 10
122.2329475919
 20
141.5483045754
 30
0.0
 10
122.2277187274
 20
141.7593611956
 30
0.0
 10
122.2250314855
 20
141.9750758256
 30
0.0
 10
122.2250314842
 20
142.1909434147
 30
0.0
 10
122.2277187249
 20
142.40665808
 30
0.0
 10
122.2329475856
 20
142.6177146429
 30
0.0
 10
122.2405269705
 20
142.8237106861
 30
0.0
 10
122.250042843
 20
143.0203434311
 30
0.0
 10
122.2611314539
 20
143.2070001991
 30
0.0
 10
122.2731834908
 20
143.3798351662
 30
0.0
 10
122.2857170582
 20
143.5380796343
 30
0.0
 10
122.2980507237
 20
143.6786323255
 30
0.0
 10
122.3096782738
 20
143.8007309805
 30
0.0
 10
122.3199883641
 20
143.9022092134
 30
0.0
 10
122.3285553501
 20
143.9824567759
 30
0.0
 10
122.3349510621
 20
144.0402598566
 30
0.0
 10
122.3389186127
 20
144.0752309886
 30
0.0
 10
122.3397963823
 20
144.0830097087
 30
0.0
 10
122.3398058252
 20
144.0830097087
 30
0.0
  0
SPLINE
  5
2B0
100
AcDbEntity
  8
0
100
AcDbSpline
 62
7
  6
CONTINUOUS
 70
0
 71
3
 72
22
 73
18
 74
0
 42
0.0000001
 43
0.0000001
 44
0.0000000001
 40
0.0
 40
0.0
 40
0.0
 40
0.0
 40
0.0009785111
 40
0.003913898
 40
0.0088062265
 40
0.0156555626
 40
0.0244620505
 40
0.0352285208
 40
0.0626661587
 40
0.0980192209
 40
0.1413390801
 40
0.1926774576
 40
0.2520266861
 40
0.3940735817
 40
0.5660134165
 40
0.7674641412
 40
1.0
 40
1.0
 40
1.0
 40
1.0
 10
127.8404432601
 20
146.7813125709
 30
0.0
 10
127.83986647
 20
146.7818923737
 30
0.0
 10
127.8393472262
 20
146.7853790114
 30
0.0
 10
127.8360034911
 20
146.7918031838
 30
0.0
 10
127.8318924856
 20
146.8034648357
 30
0.0
 10
127.8254508584
 20
146.8193431948
 30
0.0
 10
127.8174422181
 20
146.8399402898
 30
0.0
 10
127.8030619813
 20
146.876497635
 30
0.0
 10
127.7807257908
 20
146.9337808301
 30
0.0
 10
127.7487258592
 20
147.0164913473
 30
0.0
 10
127.7098980877
 20
147.1179818219
 30
0.0
 10
127.6643601136
 20
147.2383766645
 30
0.0
 10
127.5904535155
 20
147.4362613189
 30
0.0
 10
127.483814251
 20
147.7295154864
 30
0.0
 10
127.3420295613
 20
148.1363330292
 30
0.0
 10
127.1831867015
 20
148.6172375868
 30
0.0
 10
127.076367667
 20
148.963911544
 30
0.0
 10
127.0210237259
 20
149.1502180784
 30
0.0
  0
SPLINE
  5
2B1
100
AcDbEntity
  8
GIANNI_ASSI
100
AcDbSpline
 62
7
  6
CONTINUOUS
 70
0
 71
3
 72
9
 73
5
 74
0
 42
0.0000001
 43
0.0000001
 44
0.0000000001
 40
0.0
 40
0.0
 40
0.0
 40
0.0
 40
0.249481367
 40
1.0
 40
1.0
 40
1.0
 40
1.0
 10
87.3398058252
 20
144.2330097087
 30
0.0
 10
87.3382689955
 20
144.2498084258
 30
0.0
 10
87.3554312314
 20
144.09869347
 30
0.0
 10
87.3578022207
 20
144.0819772452
 30
0.0
 10
87.3634187087
 20
144.0315421316
 30
0.0
  0
SPLINE
  5
2B2
100
AcDbEntity
  8
GIANNI_ASSI
100
AcDbSpline
 62
7
  6
CONTINUOUS
 70
0
 71
3
 72
11
 73
7
 74
0
 42
0.0000001
 43
0.0000001
 44
0.0000000001
 40
0.0
 40
0.0
 40
0.0
 40
0.0
 40
0.4312994176
 40
0.7472066306
 40
0.9371572915
 40
1.0
 40
1.0
 40
1.0
 40
1.0
 10
122.2842474979
 20
144.0979876461
 30
0.0
 10
122.2914631002
 20
144.1606244015
 30
0.0
 10
122.3043954023
 20
144.2690921424
 30
0.0
 10
122.3224872653
 20
144.4048989744
 30
0.0
 10
122.3329611387
 20
144.4873677246
 30
0.0
 10
122.338844567
 20
144.5238732587
 30
0.0
 10
122.3398058252
 20
144.5330097087
 30
0.0
  0
SPLINE
  5
2B3
100
AcDbEntity
  8
GIANNI_ASSI
100
AcDbSpline
 62
7
  6
CONTINUOUS
 70
0
 71
3
 72
9
 73
5
 74
0
 42
0.0000001
 43
0.0000001
 44
0.0000000001
 40
0.0
 40
0.0
 40
0.0
 40
0.0
 40
0.255335342
 40
1.0
 40
1.0
 40
1.0
 40
1.0
 10
122.3398058252
 20
139.6330097087
 30
0.0
 10
122.3457433812
 20
139.585052943
 30
0.0
 10
122.2891039934
 20
140.008098928
 30
0.0
 10
122.2850269975
 20
140.05631901
 30
0.0
 10
122.2699373425
 20
140.1964387288
 30
0.0
  0
SPLINE
  5
2B4
100
AcDbEntity
  8
0
100
AcDbSpline
 62
7
  6
CONTINUOUS
 70
0
 71
3
 72
22
 73
18
 74
0
 42
0.0000001
 43
0.0000001
 44
0.0000000001
 40
0.0
 40
0.0
 40
0.0
 40
0.0
 40
0.2303400207
 40
0.4305477154
 40
0.6020000165
 40
0.7442558844
 40
0.8039757648
 40
0.8558558528
 40
0.899826066
 40
0.935855223
 40
0.963911743
 40
0.9749402738
 40
0.9839637531
 40
0.9909807637
 40
0.9959919809
 40
0.998998146
 40
1.0
 40
1.0
 40
1.0
 40
1.0
 10
82.6585879246
 20
149.1502180784
 30
0.0
 10
82.6037845979
 20
148.9657146957
 30
0.0
 10
82.4978658389
 20
148.6218639558
 30
0.0
 10
82.3402173325
 20
148.1441516239
 30
0.0
 10
82.1990230376
 20
147.7385860242
 30
0.0
 10
82.0924841352
 20
147.4452964213
 30
0.0
 10
82.0183277678
 20
147.2465574145
 30
0.0
 10
81.972371605
 20
147.1249646682
 30
0.0
 10
81.9330006044
 20
147.0220206243
 30
0.0
 10
81.9004727623
 20
146.9378462611
 30
0.0
 10
81.8775947039
 20
146.8792756291
 30
0.0
 10
81.8630187051
 20
146.8420011133
 30
0.0
 10
81.854548449
 20
146.8206305112
 30
0.0
 10
81.8486543798
 20
146.805070301
 30
0.0
 10
81.8428621059
 20
146.7915335036
 30
0.0
 10
81.8422180526
 20
146.7877483483
 30
0.0
 10
81.8388119331
 20
146.7812876159
 30
0.0
 10
81.8394023912
 20
146.781881052
 30
0.0
  0
SPLINE
  5
2B5
100
AcDbEntity
  8
0
100
AcDbSpline
 62
7
  6
CONTINUOUS
 70
0
 71
3
 72
9
 73
5
 74
0
 42
0.0000001
 43
0.0000001
 44
0.0000000001
 40
0.0
 40
0.0
 40
0.0
 40
0.0
 40
0.4767112585
 40
1.0
 40
1.0
 40
1.0
 40
1.0
 10
122.6673126616
 20
151.1830097087
 30
0.0
 10
122.504825969
 20
151.8059629612
 30
0.0
 10
122.2236727417
 20
153.1291978182
 30
0.0
 10
122.0891178207
 20
154.476814354
 30
0.0
 10
122.0624653179
 20
155.1830097087
 30
0.0
  0
SPLINE
  5
2B6
100
AcDbEntity
  8
0
100
AcDbSpline
 62
7
  6
CONTINUOUS
 70
0
 71
3
 72
9
 73
5
 74
0
 42
0.0000001
 43
0.0000001
 44
0.0000000001
 40
0.0
 40
0.0
 40
0.0
 40
0.0
 40
0.5232887415
 40
1.0
 40
1.0
 40
1.0
 40
1.0
 10
87.6171463326
 20
155.1830097087
 30
0.0
 10
87.5904938298
 20
154.476814354
 30
0.0
 10
87.4559389087
 20
153.1291978182
 30
0.0
 10
87.1747856815
 20
151.8059629612
 30
0.0
 10
87.0122989889
 20
151.1830097087
 30
0.0
  0
ENDSEC
  0
SECTION
  2
OBJECTS
  0
DICTIONARY
  5
C
100
AcDbDictionary
280
0
281
1
  3
ACAD_GROUP
350
D
  3
ACAD_MLINESTYLE
350
17
  3
ACAD_LAYOUT
350
1A
  3
ACAD_PLOTSETTINGS
350
19
  3
ACAD_PLOTSTYLENAME
350
E
  0
DICTIONARY
  5
D
102
{ACAD_REACTORS
330
C
102
}
100
AcDbDictionary
280
0
281
1
  0
ACDBDICTIONARYWDFLT
  5
E
102
{ACAD_REACTORS
330
C
102
}
100
AcDbDictionary
281
1
  3
Normal
350
F
100
AcDbDictionaryWithDefault
340
F
  0
DICTIONARY
  5
17
102
{ACAD_REACTORS
330
C
102
}
100
AcDbDictionary
280
0
281
1
  3
Standard
350
18
  0
DICTIONARY
  5
19
102
{ACAD_REACTORS
330
C
102
}
100
AcDbDictionary
281
1
  0
DICTIONARY
  5
1A
102
{ACAD_REACTORS
330
C
102
}
100
AcDbDictionary
281
1
  3
Model
350
2B7
  3
Layout1
350
2B8
  0
ACDBPLACEHOLDER
  5
F
102
{ACAD_REACTORS
330
E
102
}
  0
MLINESTYLE
  5
18
102
{ACAD_REACTORS
330
17
102
}
100
AcDbMlineStyle
  2
STANDARD
 70
0
  3

 62
256
 51
90.0
 52
90.0
 71
2
 49
0.5
 62
256
  6
BYLAYER
 49
-0.5
 62
256
  6
BYLAYER
  0
LAYOUT
  5
2B7
102
{ACAD_REACTORS
330
1A
102
}
100
AcDbPlotSettings
  1

  2
none_device
  4

  6

 40
0.0
 41
0.0
 42
0.0
 43
0.0
 44
210.0
 45
297.0
 46
0.0
 47
0.0
 48
0.0
 49
0.0
140
0.0
141
0.0
142
1.0
143
1.0
 70
1024
 72
1
 73
0
 74
0
  7

 75
0
147
1.0
148
0.0
149
0.0
100
AcDbLayout
  1
Model
 70
0
 71
0
 10
0.0
 20
0.0
 11
210.0
 21
297.0
 12
0.0
 22
0.0
 32
0.0
 14
0.0
 24
0.0
 34
0.0
 15
0.0
 25
0.0
 35
0.0
146
0.0
 13
0.0
 23
0.0
 33
0.0
 16
1.0
 26
0.0
 36
0.0
 17
0.0
 27
1.0
 37
0.0
 76
0
330
210
345
0
346
0
  0
LAYOUT
  5
2B8
102
{ACAD_REACTORS
330
1A
102
}
100
AcDbPlotSettings
  1

  2
none_device
  4

  6

 40
0.0
 41
0.0
 42
0.0
 43
0.0
 44
210.0
 45
297.0
 46
0.0
 47
0.0
 48
0.0
 49
0.0
140
0.0
141
0.0
142
1.0
143
1.0
 70
0
 72
1
 73
0
 74
0
  7

 75
0
147
1.0
148
0.0
149
0.0
100
AcDbLayout
  1
Layout1
 70
0
 71
1
 10
0.0
 20
0.0
 11
210.0
 21
297.0
 12
0.0
 22
0.0
 32
0.0
 14
0.0
 24
0.0
 34
0.0
 15
0.0
 25
0.0
 35
0.0
146
0.0
 13
0.0
 23
0.0
 33
0.0
 16
1.0
 26
0.0
 36
0.0
 17
0.0
 27
1.0
 37
0.0
 76
0
330
211
345
0
346
0
  0
ENDSEC
  0
EOF
