999
DXF file: 23600-50cat.dxf
999
Pro/ENGINEER 2009300 by Parametric Technology Corporation
  0
SECTION
  2
HEADER
  9
$ACADVER
  1
AC1018
  9
$DWGCODEPAGE
  3
ANSI_1252
  9
$EXTMAX
 10
420.0
 20
297.0
 30
0.0
  9
$EXTMIN
 10
0.0
 20
0.0
 30
0.0
  9
$LIMMIN
 10
0.0
 20
0.0
  9
$LIMMAX
 10
420.0
 20
297.0
  9
$VIEWCTR
 10
210.0
 20
148.5
  9
$VIEWSIZE
 40
297.0
  9
$CLAYER
  8
0
  9
$LTSCALE
 40
23.1
  9
$CELTYPE
  6
BYLAYER
  9
$DIMSCALE
 40
1.0
  9
$DIMASZ
 40
4.76
  9
$DIMEXO
 40
2.625
  9
$DIMDLI
 40
15.96
  9
$DIMEXE
 40
7.56
  9
$DIMCEN
 40
3.78
  9
$DIMLFAC
 40
1.0
  9
$DIMBLK
  1
_FILLED
  9
$DIMTXT
 40
1.5
  9
$DIMTOL
 70
1
  9
$DIMLIM
 70
0
  9
$DIMTFAC
 40
1.0
  9
$DIMTP
 40
0.001
  9
$DIMTM
 40
0.001
  9
$PDMODE
 70
3
  9
$PDSIZE
 40
0.3125
  9
$HANDSEED
  5
300
  9
$TILEMODE
 70
1
  9
$MEASUREMENT
 70
1
  9
$INSUNITS
 70
4
  0
ENDSEC
  0
SECTION
  2
CLASSES
  0
CLASS
  1
ACDBDICTIONARYWDFLT
  2
AcDbDictionaryWithDefault
  3
AutoCAD 2000
 90
0
 91
1
280
0
281
0
  0
CLASS
  1
ACDBPLACEHOLDER
  2
AcDbPlaceHolder
  3
AutoCAD 2000
 90
0
 91
1
280
0
281
0
  0
CLASS
  1
LAYOUT
  2
AcDbLayout
  3
AutoCAD 2000
 90
0
 91
0
280
0
281
0
  0
ENDSEC
  0
SECTION
  2
TABLES
  0
TABLE
  2
VPORT
  5
8
100
AcDbSymbolTable
 70
2
  0
VPORT
  5
1F4
100
AcDbSymbolTableRecord
100
AcDbViewportTableRecord
  2
*ACTIVE
 70
0
 10
0.0
 20
0.0
 11
1.0
 21
1.0
 12
210.0
 22
148.5
 13
0.0
 23
0.0
 14
1.0
 24
1.0
 15
0.0
 25
0.0
 16
0.0
 26
0.0
 36
1.0
 17
0.0
 27
0.0
 37
0.0
 40
297.0
 41
1.4141414141
 42
50.0
 43
0.0
 44
0.0
 50
0.0
 51
0.0
 71
0
 72
100
 73
1
 74
1
 75
0
 76
0
 77
0
 78
0
  0
ENDTAB
  0
TABLE
  2
LTYPE
  5
5
100
AcDbSymbolTable
 70
6
  0
LTYPE
  5
14
100
AcDbSymbolTableRecord
100
AcDbLinetypeTableRecord
  2
BYBLOCK
 70
0
  3

 72
65
 73
0
 40
0.0
  0
LTYPE
  5
15
100
AcDbSymbolTableRecord
100
AcDbLinetypeTableRecord
  2
BYLAYER
 70
0
  3

 72
65
 73
0
 40
0.0
  0
LTYPE
  5
16
100
AcDbSymbolTableRecord
100
AcDbLinetypeTableRecord
  2
CONTINUOUS
 70
64
  3
Solid line
 72
65
 73
0
 40
0.0
  0
LTYPE
  5
1F5
100
AcDbSymbolTableRecord
100
AcDbLinetypeTableRecord
  2
CENTER
 70
64
  3
____ _ ____ _ ____ _ ____ _ ____ _ ____ _ ____
 72
65
 73
4
 40
0.6
 49
0.375
 74
0
 49
-0.075
 74
0
 49
0.075
 74
0
 49
-0.075
 74
0
  0
LTYPE
  5
1F6
100
AcDbSymbolTableRecord
100
AcDbLinetypeTableRecord
  2
HIDDEN
 70
64
  3
- - - - - - - - - - - - - - - - - - - -
 72
65
 73
2
 40
0.2
 49
0.1
 74
0
 49
-0.1
 74
0
  0
LTYPE
  5
1F7
100
AcDbSymbolTableRecord
100
AcDbLinetypeTableRecord
  2
PHANTOM
 70
64
  3
_____ _ _ _____ _ _ _____ _ _ _____
 72
65
 73
6
 40
0.8
 49
0.45
 74
0
 49
-0.05
 74
0
 49
0.1
 74
0
 49
-0.05
 74
0
 49
0.1
 74
0
 49
-0.05
 74
0
  0
LTYPE
  5
1F8
100
AcDbSymbolTableRecord
100
AcDbLinetypeTableRecord
  2
DOT
 70
64
  3
. . . . . . . . . . . . . . . . . . . .
 72
65
 73
2
 40
0.2
 49
0.1
 74
0
 49
-0.1
 74
0
  0
LTYPE
  5
1F9
100
AcDbSymbolTableRecord
100
AcDbLinetypeTableRecord
  2
DASHED
 70
64
  3
- - - - - - - - - - - - - - - - - - - -
 72
65
 73
2
 40
0.2
 49
0.1
 74
0
 49
-0.1
 74
0
  0
ENDTAB
  0
TABLE
  2
LAYER
  5
2
100
AcDbSymbolTable
 70
36
  0
LAYER
  5
10
100
AcDbSymbolTableRecord
100
AcDbLayerTableRecord
  2
0
 70
0
 62
7
  6
CONTINUOUS
370
-3
390
F
  0
LAYER
  5
1FA
100
AcDbSymbolTableRecord
100
AcDbLayerTableRecord
  2
DEFAULT_1
 70
0
 62
7
  6
CENTER
370
-3
390
F
  0
LAYER
  5
1FB
100
AcDbSymbolTableRecord
100
AcDbLayerTableRecord
  2
DEFAULT_2
 70
0
 62
8
  6
HIDDEN
370
-3
390
F
  0
LAYER
  5
1FC
100
AcDbSymbolTableRecord
100
AcDbLayerTableRecord
  2
DEFAULT_3
 70
0
 62
7
  6
PHANTOM
370
-3
390
F
  0
LAYER
  5
1FD
100
AcDbSymbolTableRecord
100
AcDbLayerTableRecord
  2
0_COMPONENTS
 70
0
 62
7
  6
CONTINUOUS
370
-3
390
F
  0
LAYER
  5
1FE
100
AcDbSymbolTableRecord
100
AcDbLayerTableRecord
  2
1_ALL_PLANES
 70
0
 62
7
  6
CONTINUOUS
370
-3
390
F
  0
LAYER
  5
1FF
100
AcDbSymbolTableRecord
100
AcDbLayerTableRecord
  2
1__DEF_ASM_PLN
 70
0
 62
7
  6
CONTINUOUS
370
-3
390
F
  0
LAYER
  5
200
100
AcDbSymbolTableRecord
100
AcDbLayerTableRecord
  2
1__DEF_PLANES
 70
0
 62
7
  6
CONTINUOUS
370
-3
390
F
  0
LAYER
  5
201
100
AcDbSymbolTableRecord
100
AcDbLayerTableRecord
  2
2_ALL_CSYS
 70
0
 62
7
  6
CONTINUOUS
370
-3
390
F
  0
LAYER
  5
202
100
AcDbSymbolTableRecord
100
AcDbLayerTableRecord
  2
2__DEF_ASM_CSYS
 70
0
 62
7
  6
CONTINUOUS
370
-3
390
F
  0
LAYER
  5
203
100
AcDbSymbolTableRecord
100
AcDbLayerTableRecord
  2
2__DEF_CSYS
 70
0
 62
7
  6
CONTINUOUS
370
-3
390
F
  0
LAYER
  5
204
100
AcDbSymbolTableRecord
100
AcDbLayerTableRecord
  2
3_ALL_AXES
 70
0
 62
7
  6
CONTINUOUS
370
-3
390
F
  0
LAYER
  5
205
100
AcDbSymbolTableRecord
100
AcDbLayerTableRecord
  2
4_ALL_POINTS
 70
0
 62
7
  6
CONTINUOUS
370
-3
390
F
  0
LAYER
  5
206
100
AcDbSymbolTableRecord
100
AcDbLayerTableRecord
  2
5_ALL_CURVES
 70
0
 62
7
  6
CONTINUOUS
370
-3
390
F
  0
LAYER
  5
207
100
AcDbSymbolTableRecord
100
AcDbLayerTableRecord
  2
6_ALL_SURFS
 70
0
 62
7
  6
CONTINUOUS
370
-3
390
F
  0
LAYER
  5
208
100
AcDbSymbolTableRecord
100
AcDbLayerTableRecord
  2
CURVA
 70
0
 62
7
  6
CONTINUOUS
370
-3
390
F
  0
LAYER
  5
209
100
AcDbSymbolTableRecord
100
AcDbLayerTableRecord
  2
CURVE
 70
0
 62
7
  6
CONTINUOUS
370
-3
390
F
  0
LAYER
  5
20A
100
AcDbSymbolTableRecord
100
AcDbLayerTableRecord
  2
XSEC_DATUMS
 70
0
 62
7
  6
CONTINUOUS
370
-3
390
F
  0
ENDTAB
  0
TABLE
  2
STYLE
  5
3
100
AcDbSymbolTable
 70
1
  0
STYLE
  5
11
100
AcDbSymbolTableRecord
100
AcDbTextStyleTableRecord
  2
STANDARD
 70
0
 40
0.0
 41
1.2
 50
0.0
 71
0
 42
0.2
  3
txt
  4

  0
STYLE
  5
20B
100
AcDbSymbolTableRecord
100
AcDbTextStyleTableRecord
  2
TEXTSTYLE_1
 70
0
 40
0.0
 41
0.8
 50
0.0
 71
0
 42
0.2
  3
gdt
  4

  0
STYLE
  5
20C
100
AcDbSymbolTableRecord
100
AcDbTextStyleTableRecord
  2
TEXTSTYLE_2
 70
0
 40
0.0
 41
1.2
 50
0.0
 71
0
 42
0.2
  3
gdt
  4

  0
ENDTAB
  0
TABLE
  2
VIEW
  5
6
100
AcDbSymbolTable
 70
0
  0
ENDTAB
  0
TABLE
  2
UCS
  5
7
100
AcDbSymbolTable
 70
0
  0
ENDTAB
  0
TABLE
  2
APPID
  5
9
100
AcDbSymbolTable
 70
1
  0
APPID
  5
20D
100
AcDbSymbolTableRecord
100
AcDbRegAppTableRecord
  2
ACAD
 70
0
  0
ENDTAB
  0
TABLE
  2
BLOCK_RECORD
  5
1
100
AcDbSymbolTable
 70
0
  0
BLOCK_RECORD
  5
20E
100
AcDbSymbolTableRecord
100
AcDbBlockTableRecord
  2
*Model_Space
  0
BLOCK_RECORD
  5
20F
100
AcDbSymbolTableRecord
100
AcDbBlockTableRecord
  2
*Paper_Space
  0
BLOCK_RECORD
  5
210
100
AcDbSymbolTableRecord
100
AcDbBlockTableRecord
  2
_FILLED
  0
BLOCK_RECORD
  5
211
100
AcDbSymbolTableRecord
100
AcDbBlockTableRecord
  2
*D0
  0
BLOCK_RECORD
  5
212
100
AcDbSymbolTableRecord
100
AcDbBlockTableRecord
  2
*D1
  0
BLOCK_RECORD
  5
213
100
AcDbSymbolTableRecord
100
AcDbBlockTableRecord
  2
*D2
  0
BLOCK_RECORD
  5
214
100
AcDbSymbolTableRecord
100
AcDbBlockTableRecord
  2
*D3
  0
BLOCK_RECORD
  5
215
100
AcDbSymbolTableRecord
100
AcDbBlockTableRecord
  2
*D4
  0
BLOCK_RECORD
  5
216
100
AcDbSymbolTableRecord
100
AcDbBlockTableRecord
  2
*D5
  0
ENDTAB
  0
TABLE
  2
DIMSTYLE
  5
A
100
AcDbSymbolTable
 70
1
100
AcDbDimStyleTable
 71
0
  0
DIMSTYLE
105
217
100
AcDbSymbolTableRecord
100
AcDbDimStyleTableRecord
  2
STANDARD
 70
0
  3

  4

 40
1.0
 41
4.76
 42
0.0625
 43
0.38
 44
0.18
 45
0.0
 46
0.0
 47
0.001
 48
0.001
140
1.5
141
0.09
142
0.0
143
25.4
144
1.0
145
0.0
146
1.0
147
0.09
 71
1.0
 72
0.0
 73
0
 74
0
 75
0
 76
0
 77
1
 78
8
170
0
171
2
172
0
173
0
174
0
175
0
176
0
177
0
178
5
270
2
271
3
272
3
273
2
274
2
275
0
280
0
281
0
282
0
283
1
284
8
285
0
286
0
287
3
288
0
340
11
341
210
342
210
343
210
344
210
  0
DIMSTYLE
105
218
100
AcDbSymbolTableRecord
100
AcDbDimStyleTableRecord
  2
DIMSTYLE_1
 70
0
  3

  4

 40
1.0
 41
4.76
 42
0.0625
 43
0.38
 44
0.18
 45
0.0
 46
0.0
 47
0.0
 48
0.0
140
1.5
141
0.09
142
0.0
143
25.4
144
1.0
145
0.0
146
1.0
147
0.09
 71
0.0
 72
0.0
 73
0
 74
0
 75
0
 76
0
 77
1
 78
8
170
0
171
2
172
0
173
0
174
0
175
0
176
0
177
0
178
5
270
2
271
0
272
0
273
2
274
2
275
0
280
0
281
0
282
0
283
1
284
8
285
0
286
0
287
3
288
0
340
11
341
210
342
210
343
210
344
210
  0
DIMSTYLE
105
219
100
AcDbSymbolTableRecord
100
AcDbDimStyleTableRecord
  2
DIMSTYLE_2
 70
0
  3

  4

 40
1.0
 41
4.76
 42
0.0625
 43
0.38
 44
0.18
 45
0.0
 46
0.0
 47
0.01
 48
0.01
140
1.5
141
0.09
142
0.0
143
25.4
144
1.0
145
0.0
146
1.0
147
0.09
 71
0.0
 72
0.0
 73
0
 74
0
 75
0
 76
0
 77
1
 78
8
170
0
171
2
172
0
173
0
174
0
175
0
176
0
177
0
178
5
270
2
271
3
272
3
273
2
274
2
275
0
280
0
281
0
282
0
283
1
284
8
285
0
286
0
287
3
288
0
340
11
341
210
342
210
343
210
344
210
  0
ENDTAB
  0
ENDSEC
  0
SECTION
  2
BLOCKS
  0
BLOCK
  5
20
100
AcDbEntity
  8
0
100
AcDbBlockBegin
  2
*Model_Space
 70
0
 10
0.0
 20
0.0
 30
0.0
  3
*Model_Space
  1

  0
ENDBLK
  5
21
100
AcDbEntity
  8
0
100
AcDbBlockEnd
  0
BLOCK
  5
1C
100
AcDbEntity
  8
0
100
AcDbBlockBegin
  2
*Paper_Space
 70
0
 10
0.0
 20
0.0
 30
0.0
  3
*Paper_Space
  1

  0
ENDBLK
  5
1D
100
AcDbEntity
  8
0
100
AcDbBlockEnd
  0
BLOCK
  5
21A
100
AcDbEntity
  8
0
100
AcDbBlockBegin
  2
_FILLED
 70
64
 10
0.0
 20
0.0
  3
_FILLED
  1

  0
SOLID
  5
21B
100
AcDbEntity
  8
0
  6
BYBLOCK
 62
0
100
AcDbTrace
 10
0.0
 20
0.0
 11
-1.0
 21
0.1050420168
 12
-1.0
 22
-0.1050420168
 13
-1.0
 23
-0.1050420168
  0
ENDBLK
  5
21C
100
AcDbEntity
  8
0
  6
BYBLOCK
 62
0
100
AcDbBlockEnd
  0
BLOCK
  5
21D
100
AcDbEntity
  8
0
100
AcDbBlockBegin
 62
2
  6
CONTINUOUS
  2
*D0
 70
65
 10
0.0
 20
0.0
  3
*D0
  1

  0
MTEXT
  5
21E
100
AcDbEntity
  8
0
100
AcDbMText
 62
5
  6
CONTINUOUS
  7
TEXTSTYLE_2
 71
2
 72
1
 10
329.955269768
 20
45.6888125826
 30
0.0
 11
1.0
 21
0.0
 31
0.0
 44
0.9
  1
{\Fgdt;n}\Ftxt;32
 40
1.5
 41
6.6285714286
  0
LINE
  5
21F
100
AcDbEntity
  8
0
100
AcDbLine
 62
2
  6
CONTINUOUS
 10
345.980269768
 20
56.1764347315
 11
345.980269768
 21
42.5459554397
  0
LINE
  5
220
100
AcDbEntity
  8
0
100
AcDbLine
 62
2
  6
CONTINUOUS
 10
313.930269768
 20
56.1764347315
 11
313.930269768
 21
42.5459554397
  0
LINE
  5
221
100
AcDbEntity
  8
0
100
AcDbLine
 62
2
  6
CONTINUOUS
 10
345.980269768
 20
43.5459554397
 11
329.955269768
 21
43.5459554397
  0
LINE
  5
222
100
AcDbEntity
  8
0
100
AcDbLine
 62
2
  6
CONTINUOUS
 10
313.930269768
 20
43.5459554397
 11
329.955269768
 21
43.5459554397
  0
INSERT
  5
223
100
AcDbEntity
  8
0
100
AcDbBlockReference
 62
2
  6
CONTINUOUS
  2
_FILLED
 10
345.980269768
 20
43.5459554397
 41
4.76
 42
4.76
 43
4.76
  0
INSERT
  5
224
100
AcDbEntity
  8
0
100
AcDbBlockReference
 62
2
  6
CONTINUOUS
  2
_FILLED
 10
313.930269768
 20
43.5459554397
 41
4.76
 42
4.76
 43
4.76
 50
180.0
  0
ENDBLK
  5
225
100
AcDbEntity
  8
0
  6
BYBLOCK
 62
0
100
AcDbBlockEnd
  0
BLOCK
  5
226
100
AcDbEntity
  8
0
100
AcDbBlockBegin
 62
2
  6
CONTINUOUS
  2
*D1
 70
65
 10
0.0
 20
0.0
  3
*D1
  1

  0
MTEXT
  5
227
100
AcDbEntity
  8
0
100
AcDbMText
 62
5
  6
CONTINUOUS
  7
TEXTSTYLE_2
 71
2
 72
1
 10
329.955269768
 20
37.8032600826
 30
0.0
 11
1.0
 21
0.0
 31
0.0
 44
0.9
  1
{\Fgdt;n}\Ftxt;60
 40
1.5
 41
6.6285714286
  0
LINE
  5
228
100
AcDbEntity
  8
0
100
AcDbLine
 62
2
  6
CONTINUOUS
 10
359.955269768
 20
72.8764347315
 11
359.955269768
 21
34.6604029397
  0
LINE
  5
229
100
AcDbEntity
  8
0
100
AcDbLine
 62
2
  6
CONTINUOUS
 10
299.955269768
 20
72.8764347315
 11
299.955269768
 21
34.6604029397
  0
LINE
  5
22A
100
AcDbEntity
  8
0
100
AcDbLine
 62
2
  6
CONTINUOUS
 10
359.955269768
 20
35.6604029397
 11
329.955269768
 21
35.6604029397
  0
LINE
  5
22B
100
AcDbEntity
  8
0
100
AcDbLine
 62
2
  6
CONTINUOUS
 10
299.955269768
 20
35.6604029397
 11
329.955269768
 21
35.6604029397
  0
INSERT
  5
22C
100
AcDbEntity
  8
0
100
AcDbBlockReference
 62
2
  6
CONTINUOUS
  2
_FILLED
 10
359.955269768
 20
35.6604029397
 41
4.76
 42
4.76
 43
4.76
  0
INSERT
  5
22D
100
AcDbEntity
  8
0
100
AcDbBlockReference
 62
2
  6
CONTINUOUS
  2
_FILLED
 10
299.955269768
 20
35.6604029397
 41
4.76
 42
4.76
 43
4.76
 50
180.0
  0
ENDBLK
  5
22E
100
AcDbEntity
  8
0
  6
BYBLOCK
 62
0
100
AcDbBlockEnd
  0
BLOCK
  5
22F
100
AcDbEntity
  8
0
100
AcDbBlockBegin
 62
2
  6
CONTINUOUS
  2
*D2
 70
65
 10
0.0
 20
0.0
  3
*D2
  1

  0
MTEXT
  5
230
100
AcDbEntity
  8
0
100
AcDbMText
 62
5
  6
CONTINUOUS
  7
STANDARD
 71
2
 72
1
 10
377.3804859489
 20
83.2764347315
 30
0.0
 11
0.0
 21
1.0
 31
0.0
 44
0.9
  1
55
 40
1.5
 41
4.6285714286
  0
LINE
  5
231
100
AcDbEntity
  8
0
100
AcDbLine
 62
2
  6
CONTINUOUS
 10
330.248998856
 20
55.7764347315
 11
380.5233430918
 21
55.7764347315
  0
LINE
  5
232
100
AcDbEntity
  8
0
100
AcDbLine
 62
2
  6
CONTINUOUS
 10
330.3556807525
 20
110.7764347315
 11
380.5233430918
 21
110.7764347315
  0
LINE
  5
233
100
AcDbEntity
  8
0
100
AcDbLine
 62
2
  6
CONTINUOUS
 10
379.5233430918
 20
55.7764347315
 11
379.5233430918
 21
83.2764347315
  0
LINE
  5
234
100
AcDbEntity
  8
0
100
AcDbLine
 62
2
  6
CONTINUOUS
 10
379.5233430918
 20
110.7764347315
 11
379.5233430918
 21
83.2764347315
  0
INSERT
  5
235
100
AcDbEntity
  8
0
100
AcDbBlockReference
 62
2
  6
CONTINUOUS
  2
_FILLED
 10
379.5233430918
 20
55.7764347315
 41
4.76
 42
4.76
 43
4.76
 50
270.0
  0
INSERT
  5
236
100
AcDbEntity
  8
0
100
AcDbBlockReference
 62
2
  6
CONTINUOUS
  2
_FILLED
 10
379.5233430918
 20
110.7764347315
 41
4.76
 42
4.76
 43
4.76
 50
90.0
  0
ENDBLK
  5
237
100
AcDbEntity
  8
0
  6
BYBLOCK
 62
0
100
AcDbBlockEnd
  0
BLOCK
  5
238
100
AcDbEntity
  8
0
100
AcDbBlockBegin
 62
2
  6
CONTINUOUS
  2
*D3
 70
65
 10
0.0
 20
0.0
  3
*D3
  1

  0
MTEXT
  5
239
100
AcDbEntity
  8
0
100
AcDbMText
 62
5
  6
CONTINUOUS
  7
STANDARD
 71
2
 72
1
 10
386.3520589089
 20
91.2514347315
 30
0.0
 11
0.0
 21
1.0
 31
0.0
 44
0.9
  1
71
 40
1.5
 41
4.6285714286
  0
LINE
  5
23A
100
AcDbEntity
  8
0
100
AcDbLine
 62
2
  6
CONTINUOUS
 10
344.2149716969
 20
126.7264347315
 11
389.4949160518
 21
126.7264347315
  0
LINE
  5
23B
100
AcDbEntity
  8
0
100
AcDbLine
 62
2
  6
CONTINUOUS
 10
330.248998856
 20
55.7764347315
 11
389.4949160518
 21
55.7764347315
  0
LINE
  5
23C
100
AcDbEntity
  8
0
100
AcDbLine
 62
2
  6
CONTINUOUS
 10
388.4949160518
 20
126.7264347315
 11
388.4949160518
 21
91.2514347315
  0
LINE
  5
23D
100
AcDbEntity
  8
0
100
AcDbLine
 62
2
  6
CONTINUOUS
 10
388.4949160518
 20
55.7764347315
 11
388.4949160518
 21
91.2514347315
  0
INSERT
  5
23E
100
AcDbEntity
  8
0
100
AcDbBlockReference
 62
2
  6
CONTINUOUS
  2
_FILLED
 10
388.4949160518
 20
126.7264347315
 41
4.76
 42
4.76
 43
4.76
 50
90.0
  0
INSERT
  5
23F
100
AcDbEntity
  8
0
100
AcDbBlockReference
 62
2
  6
CONTINUOUS
  2
_FILLED
 10
388.4949160518
 20
55.7764347315
 41
4.76
 42
4.76
 43
4.76
 50
270.0
  0
ENDBLK
  5
240
100
AcDbEntity
  8
0
  6
BYBLOCK
 62
0
100
AcDbBlockEnd
  0
BLOCK
  5
241
100
AcDbEntity
  8
0
100
AcDbBlockBegin
 62
2
  6
CONTINUOUS
  2
*D4
 70
65
 10
0.0
 20
0.0
  3
*D4
  1

  0
MTEXT
  5
242
100
AcDbEntity
  8
0
100
AcDbMText
 62
5
  6
CONTINUOUS
  7
STANDARD
 71
2
 72
1
 10
396.0498454689
 20
100.7764347315
 30
0.0
 11
0.0
 21
1.0
 31
0.0
 44
0.9
  1
90
 40
1.5
 41
4.6285714286
  0
LINE
  5
243
100
AcDbEntity
  8
0
100
AcDbLine
 62
2
  6
CONTINUOUS
 10
364.980269768
 20
145.7764347315
 11
399.1927026118
 21
145.7764347315
  0
LINE
  5
244
100
AcDbEntity
  8
0
100
AcDbLine
 62
2
  6
CONTINUOUS
 10
330.248998856
 20
55.7764347315
 11
399.1927026118
 21
55.7764347315
  0
LINE
  5
245
100
AcDbEntity
  8
0
100
AcDbLine
 62
2
  6
CONTINUOUS
 10
398.1927026118
 20
145.7764347315
 11
398.1927026118
 21
100.7764347315
  0
LINE
  5
246
100
AcDbEntity
  8
0
100
AcDbLine
 62
2
  6
CONTINUOUS
 10
398.1927026118
 20
55.7764347315
 11
398.1927026118
 21
100.7764347315
  0
INSERT
  5
247
100
AcDbEntity
  8
0
100
AcDbBlockReference
 62
2
  6
CONTINUOUS
  2
_FILLED
 10
398.1927026118
 20
145.7764347315
 41
4.76
 42
4.76
 43
4.76
 50
90.0
  0
INSERT
  5
248
100
AcDbEntity
  8
0
100
AcDbBlockReference
 62
2
  6
CONTINUOUS
  2
_FILLED
 10
398.1927026118
 20
55.7764347315
 41
4.76
 42
4.76
 43
4.76
 50
270.0
  0
ENDBLK
  5
249
100
AcDbEntity
  8
0
  6
BYBLOCK
 62
0
100
AcDbBlockEnd
  0
BLOCK
  5
24A
100
AcDbEntity
  8
0
100
AcDbBlockBegin
 62
2
  6
CONTINUOUS
  2
*D5
 70
65
 10
0.0
 20
0.0
  3
*D5
  1

  0
MTEXT
  5
24B
100
AcDbEntity
  8
0
100
AcDbMText
 62
5
  6
CONTINUOUS
  7
TEXTSTYLE_2
 71
2
 72
1
 10
329.955269768
 20
29.1510578106
 30
0.0
 11
1.0
 21
0.0
 31
0.0
 44
0.9
  1
{\Fgdt;n}\Ftxt;70
 40
1.5
 41
6.6285714286
  0
LINE
  5
24C
100
AcDbEntity
  8
0
100
AcDbLine
 62
2
  6
CONTINUOUS
 10
364.880269768
 20
111.1764347315
 11
364.880269768
 21
26.0082006677
  0
LINE
  5
24D
100
AcDbEntity
  8
0
100
AcDbLine
 62
2
  6
CONTINUOUS
 10
295.030269768
 20
111.1764347315
 11
295.030269768
 21
26.0082006677
  0
LINE
  5
24E
100
AcDbEntity
  8
0
100
AcDbLine
 62
2
  6
CONTINUOUS
 10
364.880269768
 20
27.0082006677
 11
329.955269768
 21
27.0082006677
  0
LINE
  5
24F
100
AcDbEntity
  8
0
100
AcDbLine
 62
2
  6
CONTINUOUS
 10
295.030269768
 20
27.0082006677
 11
329.955269768
 21
27.0082006677
  0
INSERT
  5
250
100
AcDbEntity
  8
0
100
AcDbBlockReference
 62
2
  6
CONTINUOUS
  2
_FILLED
 10
364.880269768
 20
27.0082006677
 41
4.76
 42
4.76
 43
4.76
  0
INSERT
  5
251
100
AcDbEntity
  8
0
100
AcDbBlockReference
 62
2
  6
CONTINUOUS
  2
_FILLED
 10
295.030269768
 20
27.0082006677
 41
4.76
 42
4.76
 43
4.76
 50
180.0
  0
ENDBLK
  5
252
100
AcDbEntity
  8
0
  6
BYBLOCK
 62
0
100
AcDbBlockEnd
  0
ENDSEC
  0
SECTION
  2
ENTITIES
  0
DIMENSION
  5
253
100
AcDbEntity
  8
0
100
AcDbDimension
 62
2
  6
CONTINUOUS
  2
*D0
 10
313.930269768
 20
43.5459554397
 11
328.2981269108
 21
44.9388125826
 70
160
 71
2
 42
32.05
  1
%%c<>
  3
DIMSTYLE_1
100
AcDbAlignedDimension
 13
345.980269768
 23
56.1764347315
 14
313.930269768
 24
56.1764347315
 50
180.0
100
AcDbRotatedDimension
  0
DIMENSION
  5
254
100
AcDbEntity
  8
0
100
AcDbDimension
 62
2
  6
CONTINUOUS
  2
*D1
 10
299.955269768
 20
35.6604029397
 11
328.2981269108
 21
37.0532600826
 70
160
 71
2
 42
60.0
  1
%%c<>
  3
DIMSTYLE_1
100
AcDbAlignedDimension
 13
359.955269768
 23
72.8764347315
 14
299.955269768
 24
72.8764347315
 50
180.0
100
AcDbRotatedDimension
  0
DIMENSION
  5
255
100
AcDbEntity
  8
0
100
AcDbDimension
 62
2
  6
CONTINUOUS
  2
*D2
 10
379.5233430918
 20
110.7764347315
 11
379.1674563177
 21
81.2074710243
 70
160
 71
2
 42
55.0
  3
DIMSTYLE_2
100
AcDbAlignedDimension
 13
330.248998856
 23
55.7764347315
 14
330.3556807525
 24
110.7764347315
 50
90.0
100
AcDbRotatedDimension
  0
DIMENSION
  5
256
100
AcDbEntity
  8
0
100
AcDbDimension
 62
2
  6
CONTINUOUS
  2
*D3
 10
388.4949160518
 20
55.7764347315
 11
388.1390292777
 21
89.1824710243
 70
160
 71
2
 42
70.95
  3
DIMSTYLE_1
100
AcDbAlignedDimension
 13
344.2149716969
 23
126.7264347315
 14
330.248998856
 24
55.7764347315
 50
270.0
100
AcDbRotatedDimension
  0
DIMENSION
  5
257
100
AcDbEntity
  8
0
100
AcDbDimension
 62
2
  6
CONTINUOUS
  2
*D4
 10
398.1927026118
 20
55.7764347315
 11
397.8368158377
 21
98.7074710243
 70
160
 71
2
 42
90.0
  3
DIMSTYLE_2
100
AcDbAlignedDimension
 13
364.980269768
 23
145.7764347315
 14
330.248998856
 24
55.7764347315
 50
270.0
100
AcDbRotatedDimension
  0
DIMENSION
  5
258
100
AcDbEntity
  8
0
100
AcDbDimension
 62
2
  6
CONTINUOUS
  2
*D5
 10
295.030269768
 20
27.0082006677
 11
328.2981269108
 21
28.4010578106
 70
160
 71
2
 42
69.85
  1
%%c<>
  3
DIMSTYLE_1
100
AcDbAlignedDimension
 13
364.880269768
 23
111.1764347315
 14
295.030269768
 24
111.1764347315
 50
180.0
100
AcDbRotatedDimension
  0
LINE
  5
259
100
AcDbEntity
  8
0
100
AcDbLine
 62
7
  6
CONTINUOUS
 10
432.5
 20
-3.0625
 11
232.5
 21
-3.0625
  0
LINE
  5
25A
100
AcDbEntity
  8
0
100
AcDbLine
 62
7
  6
CONTINUOUS
 10
232.5
 20
-3.0625
 11
232.5
 21
283.9375
  0
LINE
  5
25B
100
AcDbEntity
  8
0
100
AcDbLine
 62
7
  6
CONTINUOUS
 10
432.5
 20
283.9375
 11
232.5
 21
283.9375
  0
LINE
  5
25C
100
AcDbEntity
  8
0
100
AcDbLine
 62
7
  6
CONTINUOUS
 10
432.5
 20
-3.0625
 11
432.5
 21
283.9375
  0
LINE
  5
25D
100
AcDbEntity
  8
0
100
AcDbLine
 62
7
  6
CONTINUOUS
 10
307.7552716231
 20
55.7764347315
 11
352.1552679129
 21
55.7764347315
  0
LINE
  5
25E
100
AcDbEntity
  8
0
100
AcDbLine
 62
7
  6
CONTINUOUS
 10
307.455269768
 20
56.0764347315
 11
352.455269768
 21
56.0764347315
  0
LINE
  5
25F
100
AcDbEntity
  8
0
100
AcDbLine
 62
7
  6
CONTINUOUS
 10
352.4552680519
 20
57.9764347315
 11
307.455271484
 21
57.9764347315
  0
LINE
  5
260
100
AcDbEntity
  8
3_ALL_AXES
100
AcDbLine
 62
7
  6
CONTINUOUS
 10
307.7052767698
 20
58.1764347315
 11
325.9005293258
 21
58.1764347315
  0
LINE
  5
261
100
AcDbEntity
  8
3_ALL_AXES
100
AcDbLine
 62
7
  6
CONTINUOUS
 10
329.7611043531
 20
58.1764347315
 11
352.1747769163
 21
58.1764347315
  0
LINE
  5
262
100
AcDbEntity
  8
0
100
AcDbLine
 62
7
  6
CONTINUOUS
 10
303.2552834411
 20
59.4764347315
 11
356.6552560949
 21
59.4764347315
  0
LINE
  5
263
100
AcDbEntity
  8
0
100
AcDbLine
 62
7
  6
CONTINUOUS
 10
303.055269768
 20
59.6764347315
 11
356.855269768
 21
59.6764347315
  0
LINE
  5
264
100
AcDbEntity
  8
0
100
AcDbLine
 62
7
  6
CONTINUOUS
 10
301.8966755965
 20
60.9764347315
 11
358.0138639394
 21
60.9764347315
  0
LINE
  5
265
100
AcDbEntity
  8
0
100
AcDbLine
 62
7
  6
CONTINUOUS
 10
301.4005219389
 20
61.414417364
 11
358.510017597
 21
61.414417364
  0
LINE
  5
266
100
AcDbEntity
  8
0
100
AcDbLine
 62
7
  6
CONTINUOUS
 10
299.955269768
 20
72.9764347315
 11
359.955269768
 21
72.9764347315
  0
LINE
  5
267
100
AcDbEntity
  8
0
100
AcDbLine
 62
7
  6
CONTINUOUS
 10
303.255269768
 20
59.4764347315
 11
303.055269768
 21
59.6764347315
  0
LINE
  5
268
100
AcDbEntity
  8
0
100
AcDbLine
 62
7
  6
CONTINUOUS
 10
307.455269768
 20
56.0764347315
 11
307.755269768
 21
55.7764347315
  0
LINE
  5
269
100
AcDbEntity
  8
0
100
AcDbLine
 62
7
  6
CONTINUOUS
 10
299.955269768
 20
86.7764347315
 11
359.955269768
 21
86.7764347315
  0
LINE
  5
26A
100
AcDbEntity
  8
0
100
AcDbLine
 62
7
  6
CONTINUOUS
 10
299.955269768
 20
91.7764347315
 11
359.955269768
 21
91.7764347315
  0
LINE
  5
26B
100
AcDbEntity
  8
0
100
AcDbLine
 62
7
  6
CONTINUOUS
 10
299.955269768
 20
92.9764347315
 11
359.955269768
 21
92.9764347315
  0
LINE
  5
26C
100
AcDbEntity
  8
0
100
AcDbLine
 62
7
  6
CONTINUOUS
 10
299.955269768
 20
97.9764347315
 11
359.955269768
 21
97.9764347315
  0
LINE
  5
26D
100
AcDbEntity
  8
0
100
AcDbLine
 62
7
  6
CONTINUOUS
 10
359.955269768
 20
100.4622211691
 11
299.955269768
 21
100.4622211691
  0
LINE
  5
26E
100
AcDbEntity
  8
0
100
AcDbLine
 62
7
  6
CONTINUOUS
 10
299.955269768
 20
101.2764347315
 11
359.955269768
 21
101.2764347315
  0
LINE
  5
26F
100
AcDbEntity
  8
0
100
AcDbLine
 62
7
  6
CONTINUOUS
 10
295.030269768
 20
111.2764347315
 11
295.530269768
 21
110.7764347315
  0
LINE
  5
270
100
AcDbEntity
  8
0
100
AcDbLine
 62
7
  6
CONTINUOUS
 10
280.745269768
 20
127.5264347315
 11
281.545269768
 21
126.7264347315
  0
LINE
  5
271
100
AcDbEntity
  8
0
100
AcDbLine
 62
7
  6
CONTINUOUS
 10
280.745269768
 20
141.8014347315
 11
280.745269768
 21
138.1636581249
  0
LINE
  5
272
100
AcDbEntity
  8
0
100
AcDbLine
 62
7
  6
CONTINUOUS
 10
280.745269768
 20
131.1142113381
 11
280.745269768
 21
127.5264347315
  0
LINE
  5
273
100
AcDbEntity
  8
0
100
AcDbLine
 62
7
  6
CONTINUOUS
 10
284.455269768
 20
133.1639347315
 11
284.455269768
 21
136.1139347315
  0
LINE
  5
274
100
AcDbEntity
  8
0
100
AcDbLine
 62
7
  6
CONTINUOUS
 10
299.9553119945
 20
109.9764347315
 11
359.9552275415
 21
109.9764347315
  0
LINE
  5
275
100
AcDbEntity
  8
0
100
AcDbLine
 62
7
  6
CONTINUOUS
 10
364.3793481211
 20
110.7764347315
 11
295.5311914148
 21
110.7764347315
  0
LINE
  5
276
100
AcDbEntity
  8
0
100
AcDbLine
 62
7
  6
CONTINUOUS
 10
364.880269768
 20
111.2764347315
 11
295.030269768
 21
111.2764347315
  0
LINE
  5
277
100
AcDbEntity
  8
0
100
AcDbLine
 62
7
  6
CONTINUOUS
 10
283.6026745038
 20
136.5139347315
 11
280.745269768
 21
138.1636581249
  0
LINE
  5
278
100
AcDbEntity
  8
0
100
AcDbLine
 62
7
  6
CONTINUOUS
 10
295.030269768
 20
145.7764347315
 11
295.305269768
 21
144.7764347315
  0
LINE
  5
279
100
AcDbEntity
  8
0
100
AcDbLine
 62
7
  6
CONTINUOUS
 10
299.955269768
 20
72.9764347315
 11
301.4005219389
 21
61.414417364
  0
LINE
  5
27A
100
AcDbEntity
  8
0
100
AcDbLine
 62
7
  6
CONTINUOUS
 10
295.030269768
 20
126.7264347315
 11
295.030269768
 21
111.2764347315
  0
LINE
  5
27B
100
AcDbEntity
  8
0
100
AcDbLine
 62
7
  6
CONTINUOUS
 10
295.305269768
 20
144.7764347315
 11
295.305269768
 21
143.0014347315
  0
LINE
  5
27C
100
AcDbEntity
  8
0
100
AcDbLine
 62
7
  6
CONTINUOUS
 10
299.955269768
 20
109.9764347315
 11
299.955269768
 21
101.2764347315
  0
LINE
  5
27D
100
AcDbEntity
  8
0
100
AcDbLine
 62
7
  6
CONTINUOUS
 10
299.955269768
 20
100.4622211691
 11
299.955269768
 21
97.9764347315
  0
LINE
  5
27E
100
AcDbEntity
  8
0
100
AcDbLine
 62
7
  6
CONTINUOUS
 10
299.955269768
 20
92.9764347315
 11
299.955269768
 21
91.7764347315
  0
LINE
  5
27F
100
AcDbEntity
  8
0
100
AcDbLine
 62
7
  6
CONTINUOUS
 10
299.955269768
 20
86.7764347315
 11
299.955269768
 21
72.9764347315
  0
LINE
  5
280
100
AcDbEntity
  8
0
100
AcDbLine
 62
7
  6
CONTINUOUS
 10
309.5974932448
 20
245.6650511093
 11
295.030269768
 21
145.7764347315
  0
LINE
  5
281
100
AcDbEntity
  8
0
100
AcDbLine
 62
7
  6
CONTINUOUS
 10
281.545269768
 20
142.6014347315
 11
280.745269768
 21
141.8014347315
  0
LINE
  5
282
100
AcDbEntity
  8
0
100
AcDbLine
 62
7
  6
CONTINUOUS
 10
303.055269768
 20
59.6764347315
 11
303.055269768
 21
60.9764347315
  0
LINE
  5
283
100
AcDbEntity
  8
0
100
AcDbLine
 62
7
  6
CONTINUOUS
 10
307.455269768
 20
57.9764347315
 11
307.455269768
 21
56.0764347315
  0
LINE
  5
284
100
AcDbEntity
  8
0
100
AcDbLine
 62
7
  6
CONTINUOUS
 10
308.455269768
 20
57.9764347315
 11
308.455269768
 21
58.1764347315
  0
LINE
  5
285
100
AcDbEntity
  8
0
100
AcDbLine
 62
7
  6
CONTINUOUS
 10
281.5452768372
 20
126.7264347315
 11
378.3652626988
 21
126.7264347315
  0
LINE
  5
286
100
AcDbEntity
  8
0
100
AcDbLine
 62
7
  6
CONTINUOUS
 10
379.165269768
 20
127.5264347315
 11
343.457024151
 21
127.5264347315
  0
LINE
  5
287
100
AcDbEntity
  8
0
100
AcDbLine
 62
7
  6
CONTINUOUS
 10
315.6296972799
 20
127.5264347315
 11
280.745269768
 21
127.5264347315
  0
LINE
  5
288
100
AcDbEntity
  8
0
100
AcDbLine
 62
7
  6
CONTINUOUS
 10
316.5951130981
 20
127.5264347315
 11
316.6630461309
 21
127.5264347315
  0
LINE
  5
289
100
AcDbEntity
  8
DEFAULT_2
100
AcDbLine
 62
8
  6
HIDDEN
 10
313.930269768
 20
69.2764347315
 11
313.930269768
 21
56.2764347315
  0
LINE
  5
28A
100
AcDbEntity
  8
0
100
AcDbLine
 62
7
  6
CONTINUOUS
 10
315.6296972799
 20
141.8014347315
 11
315.6296972799
 21
138.1636581249
  0
LINE
  5
28B
100
AcDbEntity
  8
0
100
AcDbLine
 62
7
  6
CONTINUOUS
 10
315.6296972799
 20
131.1142113381
 11
315.6296972799
 21
127.5264347315
  0
LINE
  5
28C
100
AcDbEntity
  8
0
100
AcDbLine
 62
7
  6
CONTINUOUS
 10
379.165269768
 20
131.1142113381
 11
343.457024151
 21
131.1142113381
  0
LINE
  5
28D
100
AcDbEntity
  8
0
100
AcDbLine
 62
7
  6
CONTINUOUS
 10
315.6296972799
 20
131.1142113381
 11
280.745269768
 21
131.1142113381
  0
LINE
  5
28E
100
AcDbEntity
  8
0
100
AcDbLine
 62
7
  6
CONTINUOUS
 10
283.6026933113
 20
132.7639347315
 11
316.6123850592
 21
132.7639347315
  0
LINE
  5
28F
100
AcDbEntity
  8
0
100
AcDbLine
 62
7
  6
CONTINUOUS
 10
342.5213984858
 20
132.7639347315
 11
376.307846225
 21
132.7639347315
  0
LINE
  5
290
100
AcDbEntity
  8
0
100
AcDbLine
 62
7
  6
CONTINUOUS
 10
284.455269768
 20
133.1639347315
 11
316.6201402281
 21
133.1639347315
  0
LINE
  5
291
100
AcDbEntity
  8
0
100
AcDbLine
 62
7
  6
CONTINUOUS
 10
342.5291536547
 20
133.1639347315
 11
375.455269768
 21
133.1639347315
  0
LINE
  5
292
100
AcDbEntity
  8
0
100
AcDbLine
 62
7
  6
CONTINUOUS
 10
375.455269768
 20
136.1139347315
 11
342.5291536547
 21
136.1139347315
  0
LINE
  5
293
100
AcDbEntity
  8
0
100
AcDbLine
 62
7
  6
CONTINUOUS
 10
316.6201402281
 20
136.1139347315
 11
284.455269768
 21
136.1139347315
  0
LINE
  5
294
100
AcDbEntity
  8
0
100
AcDbLine
 62
7
  6
CONTINUOUS
 10
376.307846225
 20
136.5139347315
 11
342.5213984858
 21
136.5139347315
  0
LINE
  5
295
100
AcDbEntity
  8
0
100
AcDbLine
 62
7
  6
CONTINUOUS
 10
316.6123850592
 20
136.5139347315
 11
283.6026933113
 21
136.5139347315
  0
LINE
  5
296
100
AcDbEntity
  8
0
100
AcDbLine
 62
7
  6
CONTINUOUS
 10
280.745269768
 20
138.1636581249
 11
315.6296972799
 21
138.1636581249
  0
LINE
  5
297
100
AcDbEntity
  8
0
100
AcDbLine
 62
7
  6
CONTINUOUS
 10
343.457024151
 20
138.1636581249
 11
379.165269768
 21
138.1636581249
  0
LINE
  5
298
100
AcDbEntity
  8
0
100
AcDbLine
 62
7
  6
CONTINUOUS
 10
316.5951130981
 20
141.8014347315
 11
316.1130711139
 21
142.2803697215
  0
LINE
  5
299
100
AcDbEntity
  8
0
100
AcDbLine
 62
7
  6
CONTINUOUS
 10
315.8718031279
 20
142.6014347315
 11
316.6674095648
 21
141.8057979992
  0
LINE
  5
29A
100
AcDbEntity
  8
0
100
AcDbLine
 62
7
  6
CONTINUOUS
 10
359.955269768
 20
100.4622211691
 11
359.1410562056
 21
101.2764347315
  0
LINE
  5
29B
100
AcDbEntity
  8
0
100
AcDbLine
 62
7
  6
CONTINUOUS
 10
316.5951130981
 20
141.8014347315
 11
316.5951130981
 21
137.6129452637
  0
LINE
  5
29C
100
AcDbEntity
  8
0
100
AcDbLine
 62
7
  6
CONTINUOUS
 10
316.5951130981
 20
131.6649241993
 11
316.5951130981
 21
127.5264347315
  0
LINE
  5
29D
100
AcDbEntity
  8
0
100
AcDbLine
 62
7
  6
CONTINUOUS
 10
316.6201402281
 20
133.1639347315
 11
316.6201402281
 21
136.1139347315
  0
LINE
  5
29E
100
AcDbEntity
  8
0
100
AcDbLine
 62
7
  6
CONTINUOUS
 10
316.6630461309
 20
127.5264347315
 11
316.6630461309
 21
141.8014347315
  0
LINE
  5
29F
100
AcDbEntity
  8
0
100
AcDbLine
 62
7
  6
CONTINUOUS
 10
317.6717345895
 20
128.5264347315
 11
317.6717345895
 21
140.8014347315
  0
LINE
  5
2A0
100
AcDbEntity
  8
0
100
AcDbLine
 62
7
  6
CONTINUOUS
 10
280.745269768
 20
131.1142113381
 11
283.6026745038
 21
132.7639347315
  0
LINE
  5
2A1
100
AcDbEntity
  8
0
100
AcDbLine
 62
7
  6
CONTINUOUS
 10
280.745269768
 20
141.8014347315
 11
315.6296972799
 21
141.8014347315
  0
LINE
  5
2A2
100
AcDbEntity
  8
0
100
AcDbLine
 62
7
  6
CONTINUOUS
 10
316.5951130981
 20
141.8014347315
 11
316.6630461309
 21
141.8014347315
  0
LINE
  5
2A3
100
AcDbEntity
  8
0
100
AcDbLine
 62
7
  6
CONTINUOUS
 10
343.457024151
 20
141.8014347315
 11
379.165269768
 21
141.8014347315
  0
LINE
  5
2A4
100
AcDbEntity
  8
0
100
AcDbLine
 62
7
  6
CONTINUOUS
 10
281.5452768372
 20
142.6014347315
 11
378.3652626988
 21
142.6014347315
  0
LINE
  5
2A5
100
AcDbEntity
  8
0
100
AcDbLine
 62
7
  6
CONTINUOUS
 10
364.605269768
 20
143.0014347315
 11
295.305269768
 21
143.0014347315
  0
LINE
  5
2A6
100
AcDbEntity
  8
0
100
AcDbLine
 62
7
  6
CONTINUOUS
 10
295.305269768
 20
144.7764347315
 11
364.6052697679
 21
144.7764347315
  0
LINE
  5
2A7
100
AcDbEntity
  8
0
100
AcDbLine
 62
7
  6
CONTINUOUS
 10
342.5041265247
 20
127.5264347315
 11
342.9799180478
 21
127.0474997415
  0
LINE
  5
2A8
100
AcDbEntity
  8
0
100
AcDbLine
 62
7
  6
CONTINUOUS
 10
295.030269768
 20
145.7764347315
 11
364.8802697679
 21
145.7764347315
  0
LINE
  5
2A9
100
AcDbEntity
  8
0
100
AcDbLine
 62
7
  6
CONTINUOUS
 10
316.6674095648
 20
127.5220714637
 11
315.8718031279
 21
126.7264347315
  0
LINE
  5
2AA
100
AcDbEntity
  8
0
100
AcDbLine
 62
7
  6
CONTINUOUS
 10
316.5951130981
 20
127.5264347315
 11
316.1130711139
 21
127.0474997415
  0
LINE
  5
2AB
100
AcDbEntity
  8
0
100
AcDbLine
 62
7
  6
CONTINUOUS
 10
379.165269768
 20
131.1142113381
 11
376.3078650322
 21
132.7639347315
  0
LINE
  5
2AC
100
AcDbEntity
  8
0
100
AcDbLine
 62
7
  6
CONTINUOUS
 10
341.5808241699
 20
128.5264347315
 11
341.5808241699
 21
140.8014347315
  0
LINE
  5
2AD
100
AcDbEntity
  8
0
100
AcDbLine
 62
7
  6
CONTINUOUS
 10
342.5041265247
 20
141.8014347315
 11
342.5041265247
 21
137.6129452635
  0
LINE
  5
2AE
100
AcDbEntity
  8
0
100
AcDbLine
 62
7
  6
CONTINUOUS
 10
342.5041265247
 20
131.6649241995
 11
342.5041265247
 21
127.5264347315
  0
LINE
  5
2AF
100
AcDbEntity
  8
0
100
AcDbLine
 62
7
  6
CONTINUOUS
 10
342.5291536547
 20
133.1639347315
 11
342.5291536547
 21
136.1139347315
  0
LINE
  5
2B0
100
AcDbEntity
  8
0
100
AcDbLine
 62
7
  6
CONTINUOUS
 10
343.457024151
 20
141.8014347315
 11
343.457024151
 21
138.1636581249
  0
LINE
  5
2B1
100
AcDbEntity
  8
0
100
AcDbLine
 62
7
  6
CONTINUOUS
 10
343.457024151
 20
131.1142113381
 11
343.457024151
 21
127.5264347315
  0
LINE
  5
2B2
100
AcDbEntity
  8
0
100
AcDbLine
 62
7
  6
CONTINUOUS
 10
299.955269768
 20
100.4622211691
 11
300.7694833303
 21
101.2764347315
  0
LINE
  5
2B3
100
AcDbEntity
  8
DEFAULT_2
100
AcDbLine
 62
8
  6
HIDDEN
 10
345.980269768
 20
69.2764347315
 11
345.980269768
 21
56.2764347315
  0
LINE
  5
2B4
100
AcDbEntity
  8
0
100
AcDbLine
 62
7
  6
CONTINUOUS
 10
351.455269768
 20
57.9764347315
 11
351.455269768
 21
58.1764347315
  0
LINE
  5
2B5
100
AcDbEntity
  8
0
100
AcDbLine
 62
7
  6
CONTINUOUS
 10
352.455269768
 20
57.9764347315
 11
352.455269768
 21
56.0764347315
  0
LINE
  5
2B6
100
AcDbEntity
  8
0
100
AcDbLine
 62
7
  6
CONTINUOUS
 10
342.5041265247
 20
141.8014347315
 11
342.9799180478
 21
142.2803697215
  0
LINE
  5
2B7
100
AcDbEntity
  8
0
100
AcDbLine
 62
7
  6
CONTINUOUS
 10
356.855269768
 20
59.6764347315
 11
356.855269768
 21
60.9764347315
  0
LINE
  5
2B8
100
AcDbEntity
  8
0
100
AcDbLine
 62
7
  6
CONTINUOUS
 10
378.365269768
 20
142.6014347315
 11
379.165269768
 21
141.8014347315
  0
LINE
  5
2B9
100
AcDbEntity
  8
0
100
AcDbLine
 62
7
  6
CONTINUOUS
 10
359.955269768
 20
109.9764347315
 11
359.955269768
 21
101.2764347315
  0
LINE
  5
2BA
100
AcDbEntity
  8
0
100
AcDbLine
 62
7
  6
CONTINUOUS
 10
359.955269768
 20
100.4622211691
 11
359.955269768
 21
97.9764347315
  0
LINE
  5
2BB
100
AcDbEntity
  8
0
100
AcDbLine
 62
7
  6
CONTINUOUS
 10
359.955269768
 20
92.9764347315
 11
359.955269768
 21
91.7764347315
  0
LINE
  5
2BC
100
AcDbEntity
  8
0
100
AcDbLine
 62
7
  6
CONTINUOUS
 10
359.955269768
 20
86.7764347315
 11
359.955269768
 21
72.9764347315
  0
LINE
  5
2BD
100
AcDbEntity
  8
0
100
AcDbLine
 62
7
  6
CONTINUOUS
 10
364.605269768
 20
144.7764347315
 11
364.605269768
 21
143.0014347315
  0
LINE
  5
2BE
100
AcDbEntity
  8
0
100
AcDbLine
 62
7
  6
CONTINUOUS
 10
364.880269768
 20
126.7264347315
 11
364.880269768
 21
111.2764347315
  0
LINE
  5
2BF
100
AcDbEntity
  8
0
100
AcDbLine
 62
7
  6
CONTINUOUS
 10
364.880269768
 20
145.7764347315
 11
364.605269768
 21
144.7764347315
  0
LINE
  5
2C0
100
AcDbEntity
  8
0
100
AcDbLine
 62
7
  6
CONTINUOUS
 10
376.3078650322
 20
136.5139347315
 11
379.165269768
 21
138.1636581249
  0
LINE
  5
2C1
100
AcDbEntity
  8
0
100
AcDbLine
 62
7
  6
CONTINUOUS
 10
350.3130462911
 20
245.6650511093
 11
364.880269768
 21
145.7764347315
  0
LINE
  5
2C2
100
AcDbEntity
  8
0
100
AcDbLine
 62
7
  6
CONTINUOUS
 10
359.955269768
 20
72.9764347315
 11
358.510017597
 21
61.414417364
  0
LINE
  5
2C3
100
AcDbEntity
  8
0
100
AcDbLine
 62
7
  6
CONTINUOUS
 10
375.455269768
 20
133.1639347315
 11
375.455269768
 21
136.1139347315
  0
LINE
  5
2C4
100
AcDbEntity
  8
0
100
AcDbLine
 62
7
  6
CONTINUOUS
 10
379.165269768
 20
141.8014347315
 11
379.165269768
 21
138.1636581249
  0
LINE
  5
2C5
100
AcDbEntity
  8
0
100
AcDbLine
 62
7
  6
CONTINUOUS
 10
379.165269768
 20
131.1142113381
 11
379.165269768
 21
127.5264347315
  0
LINE
  5
2C6
100
AcDbEntity
  8
0
100
AcDbLine
 62
7
  6
CONTINUOUS
 10
379.165269768
 20
127.5264347315
 11
378.365269768
 21
126.7264347315
  0
LINE
  5
2C7
100
AcDbEntity
  8
0
100
AcDbLine
 62
7
  6
CONTINUOUS
 10
364.880269768
 20
111.2764347315
 11
364.380269768
 21
110.7764347315
  0
LINE
  5
2C8
100
AcDbEntity
  8
0
100
AcDbLine
 62
7
  6
CONTINUOUS
 10
352.455269768
 20
56.0764347315
 11
352.155269768
 21
55.7764347315
  0
LINE
  5
2C9
100
AcDbEntity
  8
0
100
AcDbLine
 62
7
  6
CONTINUOUS
 10
356.655269768
 20
59.4764347315
 11
356.855269768
 21
59.6764347315
  0
LINE
  5
2CA
100
AcDbEntity
  8
0
100
AcDbLine
 62
7
  6
CONTINUOUS
 10
309.5974932448
 20
245.6650511093
 11
350.3130462911
 21
245.6650511093
  0
LINE
  5
2CB
100
AcDbEntity
  8
0
100
AcDbLine
 62
7
  6
CONTINUOUS
 10
311.5765636679
 20
247.3764347315
 11
348.333975868
 21
247.3764347315
  0
ARC
  5
2CC
100
AcDbEntity
  8
0
100
AcDbCircle
 62
7
  6
CONTINUOUS
 10
488.3714593264
 20
-32.0579304279
 40
245.0852815012
100
AcDbArc
 50
134.6561745992
 51
134.8152524196
  0
ARC
  5
2CD
100
AcDbEntity
  8
0
100
AcDbCircle
 62
7
  6
CONTINUOUS
 10
488.3714593264
 20
301.3857998909
 40
245.0852815012
100
AcDbArc
 50
225.1847475804
 51
225.3438254008
  0
ARC
  5
2CE
100
AcDbEntity
  8
0
100
AcDbCircle
 62
7
  6
CONTINUOUS
 10
170.7245131242
 20
-29.7943610998
 40
243.4782074696
100
AcDbArc
 50
44.8108527666
 51
44.9699362283
  0
ARC
  5
2CF
100
AcDbEntity
  8
0
100
AcDbCircle
 62
7
  6
CONTINUOUS
 10
170.7245131242
 20
299.1222305627
 40
243.4782074695
100
AcDbArc
 50
315.0300637717
 51
315.1891472334
  0
ARC
  5
2D0
100
AcDbEntity
  8
0
100
AcDbCircle
 62
7
  6
CONTINUOUS
 10
429.4708338519
 20
336.6089560746
 40
228.7801142022
100
AcDbArc
 50
240.1586122888
 51
240.4369635413
  0
ARC
  5
2D1
100
AcDbEntity
  8
0
100
AcDbCircle
 62
7
  6
CONTINUOUS
 10
429.4708338519
 20
-67.3310866117
 40
228.7801142022
100
AcDbArc
 50
119.5630364587
 51
119.8413877112
  0
ARC
  5
2D2
100
AcDbEntity
  8
0
100
AcDbCircle
 62
7
  6
CONTINUOUS
 10
230.3656040042
 20
-63.4679458107
 40
225.05973694
100
AcDbArc
 50
59.8347862525
 51
60.1149751069
  0
ARC
  5
2D3
100
AcDbEntity
  8
0
100
AcDbCircle
 62
7
  6
CONTINUOUS
 10
230.3656040059
 20
332.7458152707
 40
225.0597369366
100
AcDbArc
 50
299.8850248931
 51
300.1652137475
  0
ARC
  5
2D4
100
AcDbEntity
  8
3_ALL_AXES
100
AcDbCircle
 62
7
  6
CONTINUOUS
 10
388.506429886
 20
58.9792358284
 40
58.751894161
100
AcDbArc
 50
179.5343010244
 51
180.0514924745
  0
ARC
  5
2D5
100
AcDbEntity
  8
0
100
AcDbCircle
 62
7
  6
CONTINUOUS
 10
295.6251427491
 20
95.4764347315
 40
5.0
100
AcDbArc
 50
330.0
 51
30.0
  0
ARC
  5
2D6
100
AcDbEntity
  8
0
100
AcDbCircle
 62
7
  6
CONTINUOUS
 10
295.6251427491
 20
89.2764347315
 40
5.0
100
AcDbArc
 50
330.0
 51
30.0
  0
ARC
  5
2D7
100
AcDbEntity
  8
0
100
AcDbCircle
 62
7
  6
CONTINUOUS
 10
364.2853967869
 20
89.2764347315
 40
5.0
100
AcDbArc
 50
150.0
 51
210.0
  0
ARC
  5
2D8
100
AcDbEntity
  8
0
100
AcDbCircle
 62
7
  6
CONTINUOUS
 10
364.2853967869
 20
95.4764347315
 40
5.0
100
AcDbArc
 50
150.0
 51
210.0
  0
CIRCLE
  5
2D9
100
AcDbEntity
  8
0
100
AcDbCircle
 62
7
  6
CONTINUOUS
 10
329.6264360664
 20
134.6014347315
 40
4.7625000037
  0
ARC
  5
2DA
100
AcDbEntity
  8
0
100
AcDbCircle
 62
7
  6
CONTINUOUS
 10
311.576558829
 20
245.3764347315
 40
2.0
100
AcDbArc
 50
90.0
 51
171.70278
  0
ARC
  5
2DB
100
AcDbEntity
  8
0
100
AcDbCircle
 62
7
  6
CONTINUOUS
 10
348.333980707
 20
245.3764347315
 40
2.0
100
AcDbArc
 50
8.29722
 51
90.0
  0
ARC
  5
2DC
100
AcDbEntity
  8
0
100
AcDbCircle
 62
7
  6
CONTINUOUS
 10
355.855269768
 20
109.9764347315
 40
0.8
100
AcDbArc
 50
90.0000009899
 51
180.0
  0
ARC
  5
2DD
100
AcDbEntity
  8
0
100
AcDbCircle
 62
7
  6
CONTINUOUS
 10
304.055269768
 20
109.9764347315
 40
0.8
100
AcDbArc
 50
0.0
 51
89.9999990101
  0
ARC
  5
2DE
100
AcDbEntity
  8
3_ALL_AXES
100
AcDbCircle
 62
7
  6
CONTINUOUS
 10
352.205269768
 20
58.9264347315
 40
0.75
100
AcDbArc
 50
270.0
 51
47.8421770496
  0
ARC
  5
2DF
100
AcDbEntity
  8
3_ALL_AXES
100
AcDbCircle
 62
7
  6
CONTINUOUS
 10
307.705269768
 20
58.9264347315
 40
0.75
100
AcDbArc
 50
132.1578229504
 51
270.0
  0
ARC
  5
2E0
100
AcDbEntity
  8
0
100
AcDbCircle
 62
7
  6
CONTINUOUS
 10
358.0138786587
 20
61.4764347315
 40
0.5
100
AcDbArc
 50
269.9999997923
 51
352.8749836239
  0
ARC
  5
2E1
100
AcDbEntity
  8
0
100
AcDbCircle
 62
7
  6
CONTINUOUS
 10
301.8966608772
 20
61.4764347315
 40
0.5
100
AcDbArc
 50
187.1250163761
 51
270.0000002077
  0
ARC
  5
2E2
100
AcDbEntity
  8
0
100
AcDbCircle
 62
7
  6
CONTINUOUS
 10
294.905269768
 20
143.0014347315
 40
0.4
100
AcDbArc
 50
270.0
 51
360.0
  0
ARC
  5
2E3
100
AcDbEntity
  8
0
100
AcDbCircle
 62
7
  6
CONTINUOUS
 10
365.005269768
 20
143.0014347315
 40
0.4
100
AcDbArc
 50
180.0
 51
270.0
  0
ARC
  5
2E4
100
AcDbEntity
  8
0
100
AcDbCircle
 62
7
  6
CONTINUOUS
 10
284.055269768
 20
133.1639347315
 40
0.4
100
AcDbArc
 50
270.0
 51
360.0
  0
ARC
  5
2E5
100
AcDbEntity
  8
0
100
AcDbCircle
 62
7
  6
CONTINUOUS
 10
375.855269768
 20
133.1639347315
 40
0.4
100
AcDbArc
 50
180.0
 51
270.0
  0
ARC
  5
2E6
100
AcDbEntity
  8
0
100
AcDbCircle
 62
7
  6
CONTINUOUS
 10
284.055269768
 20
136.1139347315
 40
0.4
100
AcDbArc
 50
0.0
 51
90.0
  0
ARC
  5
2E7
100
AcDbEntity
  8
0
100
AcDbCircle
 62
7
  6
CONTINUOUS
 10
375.855269768
 20
136.1139347315
 40
0.4
100
AcDbArc
 50
90.0
 51
180.0
  0
SPLINE
  5
2E8
100
AcDbEntity
  8
3_ALL_AXES
100
AcDbSpline
 62
7
  6
CONTINUOUS
 70
0
 71
3
 72
21
 73
17
 74
15
 42
0.0000001
 43
0.0000001
 44
0.0000000001
 12
0.0
 22
-0.7501310453
 32
0.0
 13
0.7501310452
 23
0.0
 33
0.0
 40
0.0
 40
0.0
 40
0.0
 40
0.0
 40
0.1949933694
 40
0.3826439723
 40
0.5554629264
 40
0.7069897465
 40
0.7728784921
 40
0.831333903
 40
0.8817833125
 40
0.9237321288
 40
0.9568068735
 40
0.9806573972
 40
0.9890528415
 40
0.9950761425
 40
0.9987175702
 40
1.0
 40
1.0
 40
1.0
 40
1.0
 10
329.7545594515
 20
58.9264347315
 30
0.0
 10
329.7545594515
 20
58.8776778715
 30
0.0
 10
329.7546404052
 20
58.7820001653
 30
0.0
 10
329.754999953
 20
58.6431104663
 30
0.0
 10
329.7555838592
 20
58.5150905451
 30
0.0
 10
329.7562592699
 20
58.4175162871
 30
0.0
 10
329.7569167748
 20
58.3485409085
 30
0.0
 10
329.7574227997
 20
58.3048345482
 30
0.0
 10
329.7579665161
 20
58.2671280938
 30
0.0
 10
329.7585187682
 20
58.2357317631
 30
0.0
 10
329.7591307127
 20
58.2110876025
 30
0.0
 10
329.7595916712
 20
58.1946115879
 30
0.0
 10
329.7601367473
 20
58.1852574362
 30
0.0
 10
329.7602960451
 20
58.180413028
 30
0.0
 10
329.7608177838
 20
58.1782934672
 30
0.0
 10
329.7607836897
 20
58.1764347315
 30
0.0
 10
329.7611043531
 20
58.1764347315
 30
0.0
 11
329.7545594515
 21
58.9264347315
 31
0.0
 11
329.7546852561
 21
58.7801642056
 31
0.0
 11
329.7550577277
 21
58.6394021554
 31
0.0
 11
329.7556625007
 21
58.5097667035
 31
0.0
 11
329.7564764088
 21
58.3961046456
 31
0.0
 11
329.7569523534
 21
58.3466817436
 31
0.0
 11
329.7574682315
 21
58.3028355598
 31
0.0
 11
329.7580191109
 21
58.2649959012
 31
0.0
 11
329.7585997589
 21
58.2335341495
 31
0.0
 11
329.7592044777
 21
58.2087311273
 31
0.0
 11
329.7598275086
 21
58.1908509605
 31
0.0
 11
329.7601440258
 21
58.1845612361
 31
0.0
 11
329.7604628521
 21
58.1800542339
 31
0.0
 11
329.7607832178
 21
58.1773415377
 31
0.0
 11
329.7611043531
 21
58.1764347315
 31
0.0
  0
SPLINE
  5
2E9
100
AcDbEntity
  8
3_ALL_AXES
100
AcDbSpline
 62
7
  6
CONTINUOUS
 70
0
 71
3
 72
9
 73
5
 74
3
 42
0.0000001
 43
0.0000001
 44
0.0000000001
 12
0.0
 22
0.5549453945
 32
0.0
 13
-0.1081227638
 23
0.5443104435
 33
0.0
 40
0.0
 40
0.0
 40
0.0
 40
0.0
 40
0.5443002014
 40
1.0
 40
1.0
 40
1.0
 40
1.0
 10
326.0372059699
 20
58.9264347315
 30
0.0
 10
326.0372059699
 20
59.0271203615
 30
0.0
 10
326.0305381906
 20
59.2120924477
 30
0.0
 10
326.0093612848
 20
59.3963536715
 30
0.0
 10
325.9929374443
 20
59.4790343913
 30
0.0
 11
326.0372059699
 21
58.9264347315
 31
0.0
 11
326.0256489095
 21
59.228270447
 31
0.0
 11
325.9929374443
 21
59.4790343913
 31
0.0
  0
SPLINE
  5
2EA
100
AcDbEntity
  8
3_ALL_AXES
100
AcDbSpline
 62
7
  6
CONTINUOUS
 70
0
 71
3
 72
15
 73
11
 74
9
 42
0.0000001
 43
0.0000001
 44
0.0000000001
 12
0.7814140101
 22
0.0
 32
0.0
 13
0.0
 23
0.7814140101
 33
0.0
 40
0.0
 40
0.0
 40
0.0
 40
0.0
 40
0.0387910472
 40
0.0670895729
 40
0.1027080552
 40
0.1964088894
 40
0.3186759222
 40
0.4657501501
 40
0.6324341271
 40
1.0
 40
1.0
 40
1.0
 40
1.0
 10
325.9005293258
 20
58.1764347315
 30
0.0
 10
325.9106332817
 20
58.1764347315
 30
0.0
 10
325.9268684255
 20
58.1881702309
 30
0.0
 10
325.9415845995
 20
58.2100072953
 30
0.0
 10
325.9599977399
 20
58.2470432854
 30
0.0
 10
325.9796455691
 20
58.3097154862
 30
0.0
 10
325.9994915134
 20
58.4022610336
 30
0.0
 10
326.0157768016
 20
58.5147261659
 30
0.0
 10
326.0325932507
 20
58.6914356283
 30
0.0
 10
326.0372059699
 20
58.8306943572
 30
0.0
 10
326.0372059699
 20
58.9264347315
 30
0.0
 11
325.9005293258
 21
58.1764347315
 31
0.0
 11
325.9271935652
 21
58.1908509605
 31
0.0
 11
325.9402042689
 21
58.2087311273
 31
0.0
 11
325.9528325622
 21
58.2335341495
 31
0.0
 11
325.9764621553
 21
58.3028355598
 31
0.0
 11
325.9971743077
 21
58.3961046456
 31
0.0
 11
326.0141710844
 21
58.5097667035
 31
0.0
 11
326.0268005085
 21
58.6394021554
 31
0.0
 11
326.0372059699
 21
58.9264347315
 31
0.0
  0
LINE
  5
2EB
100
AcDbEntity
  8
3_ALL_AXES
100
AcDbLine
 62
7
  6
CONTINUOUS
 10
329.7566792954
 20
59.4790343913
 11
329.7564764088
 21
59.4567648174
  0
SPLINE
  5
2EC
100
AcDbEntity
  8
3_ALL_AXES
100
AcDbSpline
 62
7
  6
CONTINUOUS
 70
0
 71
3
 72
15
 73
11
 74
9
 42
0.0000001
 43
0.0000001
 44
0.0000000001
 12
0.0
 22
-0.7814140101
 32
0.0
 13
0.7814140101
 23
0.0
 33
0.0
 40
0.0
 40
0.0
 40
0.0
 40
0.0
 40
0.3675658729
 40
0.5342498499
 40
0.6813240778
 40
0.8035911106
 40
0.8972919448
 40
0.9329104271
 40
0.9612089528
 40
1.0
 40
1.0
 40
1.0
 40
1.0
 10
325.7638526817
 20
58.9264347315
 30
0.0
 10
325.7638526817
 20
58.8306943572
 30
0.0
 10
325.7684654008
 20
58.6914356283
 30
0.0
 10
325.78528185
 20
58.5147261659
 30
0.0
 10
325.8015671382
 20
58.4022610336
 30
0.0
 10
325.8214130825
 20
58.3097154862
 30
0.0
 10
325.8410609117
 20
58.2470432854
 30
0.0
 10
325.8594740521
 20
58.2100072953
 30
0.0
 10
325.874190226
 20
58.1881702309
 30
0.0
 10
325.8904253699
 20
58.1764347315
 30
0.0
 10
325.9005293258
 20
58.1764347315
 30
0.0
 11
325.7638526817
 21
58.9264347315
 31
0.0
 11
325.7742581431
 21
58.6394021554
 31
0.0
 11
325.7868875672
 21
58.5097667035
 31
0.0
 11
325.8038843439
 21
58.3961046456
 31
0.0
 11
325.8245964963
 21
58.3028355598
 31
0.0
 11
325.8482260894
 21
58.2335341495
 31
0.0
 11
325.8608543826
 21
58.2087311273
 31
0.0
 11
325.8738650863
 21
58.1908509605
 31
0.0
 11
325.9005293258
 21
58.1764347315
 31
0.0
  0
SPLINE
  5
2ED
100
AcDbEntity
  8
3_ALL_AXES
100
AcDbSpline
 62
7
  6
CONTINUOUS
 70
0
 71
3
 72
9
 73
5
 74
3
 42
0.0000001
 43
0.0000001
 44
0.0000000001
 12
-0.1081227638
 22
-0.5443104435
 32
0.0
 13
0.0
 23
-0.5549453945
 33
0.0
 40
0.0
 40
0.0
 40
0.0
 40
0.0
 40
0.4556997986
 40
1.0
 40
1.0
 40
1.0
 40
1.0
 10
325.8081212073
 20
59.4790343913
 30
0.0
 10
325.7916973667
 20
59.3963536715
 30
0.0
 10
325.770520461
 20
59.2120924477
 30
0.0
 10
325.7638526817
 20
59.0271203615
 30
0.0
 10
325.7638526817
 20
58.9264347315
 30
0.0
 11
325.8081212073
 21
59.4790343913
 31
0.0
 11
325.775409742
 21
59.228270447
 31
0.0
 11
325.7638526817
 21
58.9264347315
 31
0.0
  0
SPLINE
  5
2EE
100
AcDbEntity
  8
0
100
AcDbSpline
 62
7
  6
CONTINUOUS
 70
0
 71
3
 72
16
 73
12
 74
10
 42
0.0000001
 43
0.0000001
 44
0.0000000001
 12
0.400065505
 22
0.0
 32
0.0
 13
0.0
 23
-0.400065505
 33
0.0
 40
0.0
 40
0.0
 40
0.0
 40
0.0
 40
0.0047124761
 40
0.0185771595
 40
0.0415536621
 40
0.0735131999
 40
0.1633906087
 40
0.2856468028
 40
0.4364352908
 40
0.6103849514
 40
1.0
 40
1.0
 40
1.0
 40
1.0
 10
342.5255137214
 20
136.5139347315
 30
0.0
 10
342.5261421544
 20
136.5139347315
 30
0.0
 10
342.5254330806
 20
136.5100222991
 30
0.0
 10
342.5266408403
 20
136.5058674827
 30
0.0
 10
342.5264453462
 20
136.4959232979
 30
0.0
 10
342.5272324484
 20
136.4770817965
 30
0.0
 10
342.5275247585
 20
136.4441959669
 30
0.0
 10
342.5281559093
 20
136.395958624
 30
0.0
 10
342.528556827
 20
136.3362935213
 30
0.0
 10
342.529034629
 20
136.2410566425
 30
0.0
 10
342.5291536547
 20
136.1658919119
 30
0.0
 10
342.5291536547
 20
136.1139347315
 30
0.0
 11
342.5255137214
 21
136.5139347315
 31
0.0
 11
342.5258627851
 21
136.5120820288
 31
0.0
 11
342.5262095234
 21
136.5065460954
 31
0.0
 11
342.5265504082
 21
136.4973603122
 31
0.0
 11
342.5268821215
 21
136.4845787073
 31
0.0
 11
342.5275066056
 21
136.4486272796
 31
0.0
 11
342.528060189
 21
136.3997199265
 31
0.0
 11
342.5285200852
 21
136.3393964069
 31
0.0
 11
342.5288658069
 21
136.2698060069
 31
0.0
 11
342.5291536547
 21
136.1139347315
 31
0.0
  0
SPLINE
  5
2EF
100
AcDbEntity
  8
0
100
AcDbSpline
 62
7
  6
CONTINUOUS
 70
0
 71
3
 72
16
 73
12
 74
10
 42
0.0000001
 43
0.0000001
 44
0.0000000001
 12
0.0
 22
-0.400065505
 32
0.0
 13
-0.4000655051
 23
0.0
 33
0.0
 40
0.0
 40
0.0
 40
0.0
 40
0.0
 40
0.3896150559
 40
0.5635647371
 40
0.7143532511
 40
0.8366094096
 40
0.9264868013
 40
0.9584463418
 40
0.9814228454
 40
0.995287526
 40
1.0
 40
1.0
 40
1.0
 40
1.0
 10
342.5291536547
 20
133.1639347315
 30
0.0
 10
342.5291536547
 20
133.1119775501
 30
0.0
 10
342.529034629
 20
133.0368128158
 30
0.0
 10
342.5285568268
 20
132.9415759298
 30
0.0
 10
342.5281559092
 20
132.8819108256
 30
0.0
 10
342.5275247585
 20
132.8336734863
 30
0.0
 10
342.5272324483
 20
132.8007876634
 30
0.0
 10
342.5264453462
 20
132.7819461638
 30
0.0
 10
342.5266408403
 20
132.7720019788
 30
0.0
 10
342.5254330809
 20
132.7678471627
 30
0.0
 10
342.5261421542
 20
132.7639347315
 30
0.0
 10
342.5255137214
 20
132.7639347315
 30
0.0
 11
342.5291536547
 21
133.1639347315
 31
0.0
 11
342.5288658069
 21
133.0080634532
 31
0.0
 11
342.5285200852
 21
132.9384730449
 31
0.0
 11
342.5280601889
 21
132.8781495149
 31
0.0
 11
342.5275066055
 21
132.829242176
 31
0.0
 11
342.5268821214
 21
132.7932907552
 31
0.0
 11
342.5265504081
 21
132.7805091492
 31
0.0
 11
342.5262095233
 21
132.7713233656
 31
0.0
 11
342.5258627851
 21
132.7657874334
 31
0.0
 11
342.5255137214
 21
132.7639347315
 31
0.0
  0
LINE
  5
2F0
100
AcDbEntity
  8
0
100
AcDbLine
 62
7
  6
CONTINUOUS
 10
342.5041265247
 20
137.6129452635
 11
342.5213984858
 21
136.5139347315
  0
LINE
  5
2F1
100
AcDbEntity
  8
0
100
AcDbLine
 62
7
  6
CONTINUOUS
 10
342.5041265247
 20
131.6649241995
 11
342.5213984858
 21
132.7639347315
  0
LINE
  5
2F2
100
AcDbEntity
  8
0
100
AcDbLine
 62
7
  6
CONTINUOUS
 10
343.3047122393
 20
142.6014347315
 11
342.9799180478
 21
142.2803697215
  0
LINE
  5
2F3
100
AcDbEntity
  8
0
100
AcDbLine
 62
7
  6
CONTINUOUS
 10
343.3047122393
 20
126.7264347315
 11
342.9799180478
 21
127.0474997415
  0
SPLINE
  5
2F4
100
AcDbEntity
  8
0
100
AcDbSpline
 62
7
  6
CONTINUOUS
 70
0
 71
3
 72
16
 73
12
 74
10
 42
0.0000001
 43
0.0000001
 44
0.0000000001
 12
0.0
 22
0.400065505
 32
0.0
 13
-0.400065505
 23
0.0
 33
0.0
 40
0.0
 40
0.0
 40
0.0
 40
0.0
 40
0.3896150486
 40
0.5635647092
 40
0.7143531972
 40
0.8366093913
 40
0.9264868001
 40
0.9584463379
 40
0.9814228405
 40
0.9952875239
 40
1.0
 40
1.0
 40
1.0
 40
1.0
 10
316.6201402281
 20
136.1139347315
 30
0.0
 10
316.6201402281
 20
136.1658919119
 30
0.0
 10
316.6200212024
 20
136.2410566425
 30
0.0
 10
316.6195434004
 20
136.3362935213
 30
0.0
 10
316.6191424827
 20
136.395958624
 30
0.0
 10
316.6185113319
 20
136.4441959669
 30
0.0
 10
316.6182190218
 20
136.4770817965
 30
0.0
 10
316.6174319196
 20
136.4959232979
 30
0.0
 10
316.6176274137
 20
136.5058674827
 30
0.0
 10
316.616419654
 20
136.5100222991
 30
0.0
 10
316.6171287278
 20
136.5139347315
 30
0.0
 10
316.6165002948
 20
136.5139347315
 30
0.0
 11
316.6201402281
 21
136.1139347315
 31
0.0
 11
316.6198523803
 21
136.2698060069
 31
0.0
 11
316.6195066587
 21
136.3393964069
 31
0.0
 11
316.6190467625
 21
136.3997199265
 31
0.0
 11
316.618493179
 21
136.4486272796
 31
0.0
 11
316.6178686949
 21
136.4845787073
 31
0.0
 11
316.6175369816
 21
136.4973603122
 31
0.0
 11
316.6171960968
 21
136.5065460954
 31
0.0
 11
316.6168493585
 21
136.5120820288
 31
0.0
 11
316.6165002948
 21
136.5139347315
 31
0.0
  0
SPLINE
  5
2F5
100
AcDbEntity
  8
0
100
AcDbSpline
 62
7
  6
CONTINUOUS
 70
0
 71
3
 72
16
 73
12
 74
10
 42
0.0000001
 43
0.0000001
 44
0.0000000001
 12
0.4000655051
 22
0.0
 32
0.0
 13
-0.0
 23
0.400065505
 33
0.0
 40
0.0
 40
0.0
 40
0.0
 40
0.0
 40
0.004712474
 40
0.0185771546
 40
0.0415536582
 40
0.0735131987
 40
0.1633905904
 40
0.2856467489
 40
0.4364352629
 40
0.6103849441
 40
1.0
 40
1.0
 40
1.0
 40
1.0
 10
316.6165002948
 20
132.7639347315
 30
0.0
 10
316.6171287276
 20
132.7639347315
 30
0.0
 10
316.6164196543
 20
132.7678471627
 30
0.0
 10
316.6176274137
 20
132.7720019788
 30
0.0
 10
316.6174319196
 20
132.7819461638
 30
0.0
 10
316.6182190217
 20
132.8007876634
 30
0.0
 10
316.6185113319
 20
132.8336734863
 30
0.0
 10
316.6191424826
 20
132.8819108256
 30
0.0
 10
316.6195434003
 20
132.9415759298
 30
0.0
 10
316.6200212024
 20
133.0368128158
 30
0.0
 10
316.6201402281
 20
133.1119775501
 30
0.0
 10
316.6201402281
 20
133.1639347315
 30
0.0
 11
316.6165002948
 21
132.7639347315
 31
0.0
 11
316.6168493585
 21
132.7657874334
 31
0.0
 11
316.6171960967
 21
132.7713233656
 31
0.0
 11
316.6175369816
 21
132.7805091492
 31
0.0
 11
316.6178686948
 21
132.7932907552
 31
0.0
 11
316.6184931789
 21
132.829242176
 31
0.0
 11
316.6190467623
 21
132.8781495149
 31
0.0
 11
316.6195066586
 21
132.9384730449
 31
0.0
 11
316.6198523803
 21
133.0080634532
 31
0.0
 11
316.6201402281
 21
133.1639347315
 31
0.0
  0
LINE
  5
2F6
100
AcDbEntity
  8
0
100
AcDbLine
 62
7
  6
CONTINUOUS
 10
316.6123850592
 20
132.7639347315
 11
316.5951130981
 21
131.6649241993
  0
LINE
  5
2F7
100
AcDbEntity
  8
0
100
AcDbLine
 62
7
  6
CONTINUOUS
 10
316.6123850592
 20
136.5139347315
 11
316.5951130981
 21
137.6129452637
  0
LINE
  5
2F8
100
AcDbEntity
  8
0
100
AcDbLine
 62
7
  6
CONTINUOUS
 10
315.7957596087
 20
142.6014347315
 11
316.1130711139
 21
142.2803697215
  0
LINE
  5
2F9
100
AcDbEntity
  8
0
100
AcDbLine
 62
7
  6
CONTINUOUS
 10
315.7957596087
 20
126.7264347315
 11
316.1130711139
 21
127.0474997415
  0
ELLIPSE
  5
2FA
100
AcDbEntity
  8
0
100
AcDbEllipse
 62
7
  6
CONTINUOUS
 10
341.5720976344
 20
128.5264347315
 30
0.0
 11
-0.9999904807
 21
0.9999904807
 31
0.0
 40
0.0043633508
 41
3.5103914457
 42
4.7080256573
  0
ELLIPSE
  5
2FB
100
AcDbEntity
  8
0
100
AcDbEllipse
 62
7
  6
CONTINUOUS
 10
341.5720976344
 20
140.8014347315
 30
0.0
 11
0.9999904807
 21
0.9999904807
 31
0.0
 40
0.0043633508
 41
-1.5664330037
 42
-0.3687987921
  0
ELLIPSE
  5
2FC
100
AcDbEntity
  8
0
100
AcDbEllipse
 62
7
  6
CONTINUOUS
 10
317.663008054
 20
128.5264347315
 30
0.0
 11
0.9999904807
 21
0.9999904807
 31
0.0
 40
0.0043633508
 41
-3.1372293305
 42
-1.5664330037
  0
ELLIPSE
  5
2FD
100
AcDbEntity
  8
0
100
AcDbEllipse
 62
7
  6
CONTINUOUS
 10
317.663008054
 20
140.8014347315
 30
0.0
 11
-0.9999904807
 21
0.9999904807
 31
0.0
 40
0.0043633508
 41
-1.5751596499
 42
-0.0043633231
  0
ENDSEC
  0
SECTION
  2
OBJECTS
  0
DICTIONARY
  5
C
100
AcDbDictionary
280
0
281
1
  3
ACAD_GROUP
350
D
  3
ACAD_MLINESTYLE
350
17
  3
ACAD_LAYOUT
350
1A
  3
ACAD_PLOTSETTINGS
350
19
  3
ACAD_PLOTSTYLENAME
350
E
  0
DICTIONARY
  5
D
102
{ACAD_REACTORS
330
C
102
}
100
AcDbDictionary
280
0
281
1
  0
ACDBDICTIONARYWDFLT
  5
E
102
{ACAD_REACTORS
330
C
102
}
100
AcDbDictionary
281
1
  3
Normal
350
F
100
AcDbDictionaryWithDefault
340
F
  0
DICTIONARY
  5
17
102
{ACAD_REACTORS
330
C
102
}
100
AcDbDictionary
280
0
281
1
  3
Standard
350
18
  0
DICTIONARY
  5
19
102
{ACAD_REACTORS
330
C
102
}
100
AcDbDictionary
281
1
  0
DICTIONARY
  5
1A
102
{ACAD_REACTORS
330
C
102
}
100
AcDbDictionary
281
1
  3
Model
350
2FE
  3
Layout1
350
2FF
  0
ACDBPLACEHOLDER
  5
F
102
{ACAD_REACTORS
330
E
102
}
  0
MLINESTYLE
  5
18
102
{ACAD_REACTORS
330
17
102
}
100
AcDbMlineStyle
  2
STANDARD
 70
0
  3

 62
256
 51
90.0
 52
90.0
 71
2
 49
0.5
 62
256
  6
BYLAYER
 49
-0.5
 62
256
  6
BYLAYER
  0
LAYOUT
  5
2FE
102
{ACAD_REACTORS
330
1A
102
}
100
AcDbPlotSettings
  1

  2
none_device
  4
ISO_A3_(420.00_x_297.00_MM)
  6

 40
0.0
 41
0.0
 42
0.0
 43
0.0
 44
420.0
 45
297.0
 46
0.0
 47
0.0
 48
0.0
 49
0.0
140
0.0
141
0.0
142
1.0
143
1.0
 70
1024
 72
1
 73
0
 74
0
  7

 75
0
147
1.0
148
0.0
149
0.0
100
AcDbLayout
  1
Model
 70
0
 71
0
 10
0.0
 20
0.0
 11
420.0
 21
297.0
 12
0.0
 22
0.0
 32
0.0
 14
0.0
 24
0.0
 34
0.0
 15
0.0
 25
0.0
 35
0.0
146
0.0
 13
0.0
 23
0.0
 33
0.0
 16
1.0
 26
0.0
 36
0.0
 17
0.0
 27
1.0
 37
0.0
 76
0
330
20E
345
0
346
0
  0
LAYOUT
  5
2FF
102
{ACAD_REACTORS
330
1A
102
}
100
AcDbPlotSettings
  1

  2
none_device
  4
ISO_A3_(420.00_x_297.00_MM)
  6

 40
0.0
 41
0.0
 42
0.0
 43
0.0
 44
420.0
 45
297.0
 46
0.0
 47
0.0
 48
0.0
 49
0.0
140
0.0
141
0.0
142
1.0
143
1.0
 70
0
 72
1
 73
0
 74
0
  7

 75
0
147
1.0
148
0.0
149
0.0
100
AcDbLayout
  1
Layout1
 70
0
 71
1
 10
0.0
 20
0.0
 11
420.0
 21
297.0
 12
0.0
 22
0.0
 32
0.0
 14
0.0
 24
0.0
 34
0.0
 15
0.0
 25
0.0
 35
0.0
146
0.0
 13
0.0
 23
0.0
 33
0.0
 16
1.0
 26
0.0
 36
0.0
 17
0.0
 27
1.0
 37
0.0
 76
0
330
20F
345
0
346
0
  0
ENDSEC
  0
EOF
