999
DXF file: G:\01-G-2007\disegni_dxf_wnt\pag64\83710112.dxf
999
Pro/ENGINEER 2002180 by Parametric Technology Corporation
0
SECTION
2
HEADER
9
$ACADVER
1
AC1014
9
$EXTMAX
10
420.0000000000
20
297.0000000000
9
$EXTMIN
10
0.0000000000
20
0.0000000000
9
$LIMMIN
10
0.0000000000
20
0.0000000000
9
$LIMMAX
10
420.0000000000
20
297.0000000000
9
$VIEWCTR
10
210.0000000000
20
148.5000000000
9
$VIEWSIZE
40
297.0000000000
9
$CLAYER
8
0
9
$LTSCALE
40
23.1000000000
9
$CELTYPE
6
BYLAYER
9
$DIMSCALE
40
1
9
$DIMASZ
40
4.7600000000
9
$DIMEXO
40
2.6250000000
9
$DIMDLI
40
15.9600000000
9
$DIMEXE
40
7.5600000000
9
$DIMCEN
40
3.7800000000
9
$DIMLFAC
40
1.0000000000
9
$DIMTXT
40
3.0000000000
9
$DIMTOL
70
1
9
$DIMLIM
70
0
9
$DIMTFAC
40
1.0000000000
9
$DIMTP
40
0.0010000000
9
$DIMTM
40
0.0010000000
9
$HANDSEED
5
2D8
0
ENDSEC
0
SECTION
2
CLASSES
0
ENDSEC
0
SECTION
2
TABLES
0
TABLE
2
VPORT
5
8
100
AcDbSymbolTable
70
2
0
VPORT
5
1F4
100
AcDbSymbolTableRecord
100
AcDbViewportTableRecord
2
*ACTIVE
70
0
10
0.0
20
0.0
11
1.0
21
1.0
12
210.0000000000
22
148.5000000000
13
0.0
23
0.0
14
1.0
24
1.0
15
0.0
25
0.0
16
0.0
26
0.0
36
1.0
17
0.0
27
0.0
37
0.0
40
297.0000000000
41
1.4141414141
42
50.0
43
0.0
44
0.0
50
0.0
51
0.0
71
0
72
100
73
1
74
1
75
0
76
0
77
0
78
0
0
ENDTAB
0
TABLE
2
LTYPE
5
5
100
AcDbSymbolTable
70
6
0
LTYPE
5
14
100
AcDbSymbolTableRecord
100
AcDbLinetypeTableRecord
2
BYBLOCK
70
0
3

72
65
73
0
40
0.0
0
LTYPE
5
15
100
AcDbSymbolTableRecord
100
AcDbLinetypeTableRecord
2
BYLAYER
70
0
3

72
65
73
0
40
0.0
0
LTYPE
5
16
100
AcDbSymbolTableRecord
100
AcDbLinetypeTableRecord
2
CONTINUOUS
70
64
3
Solid line
72
65
73
0
40
0
0
LTYPE
5
1F5
100
AcDbSymbolTableRecord
100
AcDbLinetypeTableRecord
2
CENTER
70
64
3
____ _ ____ _ ____ _ ____ _ ____ _ ____ _ ____
72
65
73
4
40
0.6
49
0.375
74
0
49
-0.075
74
0
49
0.075
74
0
49
-0.075
74
0
0
LTYPE
5
1F6
100
AcDbSymbolTableRecord
100
AcDbLinetypeTableRecord
2
HIDDEN
70
64
3
- - - - - - - - - - - - - - - - - - - -
72
65
73
2
40
0.2
49
0.1
74
0
49
-0.1
74
0
0
LTYPE
5
1F7
100
AcDbSymbolTableRecord
100
AcDbLinetypeTableRecord
2
PHANTOM
70
64
3
_____ _ _ _____ _ _ _____ _ _ _____
72
65
73
6
40
0.8
49
0.45
74
0
49
-0.05
74
0
49
0.1
74
0
49
-0.05
74
0
49
0.1
74
0
49
-0.05
74
0
0
LTYPE
5
1F8
100
AcDbSymbolTableRecord
100
AcDbLinetypeTableRecord
2
DOT
70
64
3
. . . . . . . . . . . . . . . . . . . .
72
65
73
2
40
0.2
49
0.1
74
0
49
-0.1
74
0
0
LTYPE
5
1F9
100
AcDbSymbolTableRecord
100
AcDbLinetypeTableRecord
2
DASHED
70
64
3
- - - - - - - - - - - - - - - - - - - -
72
65
73
2
40
0.2
49
0.1
74
0
49
-0.1
74
0
0
ENDTAB
0
TABLE
2
LAYER
5
2
100
AcDbSymbolTable
70
36
0
LAYER
5
10
100
AcDbSymbolTableRecord
100
AcDbLayerTableRecord
2
0
70
0
62
7
6
CONTINUOUS
0
LAYER
5
1FA
100
AcDbSymbolTableRecord
100
AcDbLayerTableRecord
2
DEFAULT_1
70
0
62
7
6
CENTER
0
LAYER
5
1FB
100
AcDbSymbolTableRecord
100
AcDbLayerTableRecord
2
DEFAULT_2
70
0
62
8
6
HIDDEN
0
LAYER
5
1FC
100
AcDbSymbolTableRecord
100
AcDbLayerTableRecord
2
DEFAULT_3
70
0
62
7
6
PHANTOM
0
LAYER
5
1FD
100
AcDbSymbolTableRecord
100
AcDbLayerTableRecord
2
0_COMPONENTS
70
0
62
7
6
CONTINUOUS
0
LAYER
5
1FE
100
AcDbSymbolTableRecord
100
AcDbLayerTableRecord
2
1_ALL_PLANES
70
0
62
7
6
CONTINUOUS
0
LAYER
5
1FF
100
AcDbSymbolTableRecord
100
AcDbLayerTableRecord
2
1__DEF_ASM_PLN
70
0
62
7
6
CONTINUOUS
0
LAYER
5
200
100
AcDbSymbolTableRecord
100
AcDbLayerTableRecord
2
1__DEF_PLANES
70
0
62
7
6
CONTINUOUS
0
LAYER
5
201
100
AcDbSymbolTableRecord
100
AcDbLayerTableRecord
2
2_ALL_CSYS
70
0
62
7
6
CONTINUOUS
0
LAYER
5
202
100
AcDbSymbolTableRecord
100
AcDbLayerTableRecord
2
2__DEF_ASM_CSYS
70
0
62
7
6
CONTINUOUS
0
LAYER
5
203
100
AcDbSymbolTableRecord
100
AcDbLayerTableRecord
2
2__DEF_CSYS
70
0
62
7
6
CONTINUOUS
0
LAYER
5
204
100
AcDbSymbolTableRecord
100
AcDbLayerTableRecord
2
3_ALL_AXES
70
0
62
7
6
CONTINUOUS
0
LAYER
5
205
100
AcDbSymbolTableRecord
100
AcDbLayerTableRecord
2
4_ALL_POINTS
70
0
62
7
6
CONTINUOUS
0
LAYER
5
206
100
AcDbSymbolTableRecord
100
AcDbLayerTableRecord
2
5_ALL_CURVES
70
0
62
7
6
CONTINUOUS
0
LAYER
5
207
100
AcDbSymbolTableRecord
100
AcDbLayerTableRecord
2
5_ALL_GTOLS_FREE_
70
0
62
7
6
CONTINUOUS
0
LAYER
5
208
100
AcDbSymbolTableRecord
100
AcDbLayerTableRecord
2
6_ALL_SURFS
70
0
62
7
6
CONTINUOUS
0
LAYER
5
209
100
AcDbSymbolTableRecord
100
AcDbLayerTableRecord
2
CURVA
70
0
62
7
6
CONTINUOUS
0
LAYER
5
20A
100
AcDbSymbolTableRecord
100
AcDbLayerTableRecord
2
CURVE
70
0
62
7
6
CONTINUOUS
0
LAYER
5
20B
100
AcDbSymbolTableRecord
100
AcDbLayerTableRecord
2
PIANI_SCORD
70
0
62
7
6
CONTINUOUS
0
LAYER
5
20C
100
AcDbSymbolTableRecord
100
AcDbLayerTableRecord
2
XSEC_DATUMS
70
0
62
7
6
CONTINUOUS
0
ENDTAB
0
TABLE
2
STYLE
5
3
100
AcDbSymbolTable
70
1
0
STYLE
5
11
100
AcDbSymbolTableRecord
100
AcDbTextStyleTableRecord
2
STANDARD
70
0
40
0.0
41
1.2000000000
50
0.0
71
0
42
0.2
3
txt
4

0
ENDTAB
0
TABLE
2
VIEW
5
6
100
AcDbSymbolTable
70
0
0
ENDTAB
0
TABLE
2
UCS
5
7
100
AcDbSymbolTable
70
0
0
ENDTAB
0
TABLE
2
APPID
5
9
100
AcDbSymbolTable
70
1
0
APPID
5
20D
100
AcDbSymbolTableRecord
100
AcDbRegAppTableRecord
2
ACAD
70
0
0
ENDTAB
0
TABLE
2
DIMSTYLE
5
A
100
AcDbSymbolTable
70
1
0
DIMSTYLE
105
20E
100
AcDbSymbolTableRecord
100
AcDbDimStyleTableRecord
2
STANDARD
70
0
3

4

5

6

7

40
1.0
41
4.7600000000
42
0.0625
43
0.38
44
0.18
45
0.0
46
0.0
47
0.0010000000
48
0.0010000000
140
3.0000000000
141
0.09
142
0.0
143
25.4
144
1.0000000000
145
0.0
146
1.0000000000
147
0.09
71
1
72
0
73
0
74
0
75
0
76
0
77
1
78
8
170
0
171
2
172
0
173
0
174
0
175
0
176
0
177
0
178
5
270
2
271
3
272
3
273
2
274
2
340
11
275
0
280
0
281
0
282
0
283
1
284
8
285
0
286
0
287
3
288
0
0
DIMSTYLE
105
20F
100
AcDbSymbolTableRecord
100
AcDbDimStyleTableRecord
2
DIMSTYLE_1
70
0
3

4

5

6

7

40
1.0
41
4.7600000000
42
0.0625
43
0.38
44
0.18
45
0.0
46
0.0
47
0.0100000000
48
0.0100000000
140
3.0000000000
141
0.09
142
0.0
143
25.4
144
1.0000000000
145
0.0
146
1.0000000000
147
0.09
71
0
72
0
73
0
74
0
75
0
76
0
77
1
78
8
170
0
171
2
172
0
173
0
174
0
175
0
176
0
177
0
178
5
270
2
271
3
272
3
273
2
274
2
340
11
275
0
280
0
281
0
282
0
283
1
284
8
285
0
286
0
287
3
288
0
0
DIMSTYLE
105
210
100
AcDbSymbolTableRecord
100
AcDbDimStyleTableRecord
2
DIMSTYLE_2
70
0
3

4

5

6

7

40
1.0
41
4.7600000000
42
0.0625
43
0.38
44
0.18
45
0.0
46
0.0
47
0.0000000000
48
0.0000000000
140
3.0000000000
141
0.09
142
0.0
143
25.4
144
1.0000000000
145
0.0
146
1.0000000000
147
0.09
71
0
72
0
73
0
74
0
75
0
76
0
77
1
78
8
170
0
171
2
172
0
173
0
174
0
175
0
176
0
177
0
178
5
270
2
271
0
272
0
273
2
274
2
340
11
275
0
280
0
281
0
282
0
283
1
284
8
285
0
286
0
287
3
288
0
0
ENDTAB
0
TABLE
2
BLOCK_RECORD
5
1
100
AcDbSymbolTable
70
0
0
BLOCK_RECORD
5
1B
100
AcDbSymbolTableRecord
100
AcDbBlockTableRecord
2
*MODEL_SPACE
0
BLOCK_RECORD
5
1C
100
AcDbSymbolTableRecord
100
AcDbBlockTableRecord
2
*PAPER_SPACE
0
BLOCK_RECORD
5
211
100
AcDbSymbolTableRecord
100
AcDbBlockTableRecord
2
*D0
0
BLOCK_RECORD
5
212
100
AcDbSymbolTableRecord
100
AcDbBlockTableRecord
2
*D1
0
BLOCK_RECORD
5
213
100
AcDbSymbolTableRecord
100
AcDbBlockTableRecord
2
*D2
0
BLOCK_RECORD
5
214
100
AcDbSymbolTableRecord
100
AcDbBlockTableRecord
2
*D3
0
ENDTAB
0
ENDSEC
0
SECTION
2
BLOCKS
0
BLOCK
5
1E
100
AcDbEntity
8
0
100
AcDbBlockBegin
2
*MODEL_SPACE
70
0
10
0.0
20
0.0
30
0.0
3
*MODEL_SPACE
1

0
ENDBLK
5
1F
100
AcDbEntity
8
0
100
AcDbBlockEnd
0
BLOCK
5
20
100
AcDbEntity
8
0
100
AcDbBlockBegin
2
*PAPER_SPACE
70
0
10
0.0
20
0.0
30
0.0
3
*PAPER_SPACE
1

0
ENDBLK
5
21
100
AcDbEntity
8
0
100
AcDbBlockEnd
0
BLOCK
5
215
100
AcDbEntity
8
0
100
AcDbBlockBegin
62
2
6
CONTINUOUS
2
*D0
70
65
10
0.0000000000
20
0.0000000000
3
*D0
1

0
TEXT
5
216
100
AcDbEntity
8
0
100
AcDbText
62
5
6
CONTINUOUS
10
325.7977146215
20
110.2589679805
7
STANDARD
40
3.0000000000
1
%%c
41
1.3333333333
72
5
11
329.7977146215
21
110.2589679805
100
AcDbText
0
TEXT
5
217
100
AcDbEntity
8
0
100
AcDbText
62
5
6
CONTINUOUS
10
329.7977146215
20
110.2589679805
7
STANDARD
40
3.0000000000
1
33.3
41
0.6785714286
72
5
11
337.9405717644
21
110.2589679805
100
AcDbText
0
LINE
5
218
100
AcDbEntity
8
0
100
AcDbLine
62
2
6
CONTINUOUS
10
349.3182692308
20
137.9925295858
11
349.3182692308
21
108.5089679805
0
LINE
5
219
100
AcDbEntity
8
0
100
AcDbLine
62
2
6
CONTINUOUS
10
316.0182692308
20
137.9925295858
11
316.0182692308
21
108.5089679805
0
LINE
5
21A
100
AcDbEntity
8
0
100
AcDbLine
62
2
6
CONTINUOUS
10
349.3182692308
20
109.5089679805
11
332.6682692308
21
109.5089679805
0
LINE
5
21B
100
AcDbEntity
8
0
100
AcDbLine
62
2
6
CONTINUOUS
10
316.0182692308
20
109.5089679805
11
332.6682692308
21
109.5089679805
0
SOLID
5
21C
100
AcDbEntity
8
0
100
AcDbTrace
62
2
6
CONTINUOUS
10
344.5582692308
20
109.0089679805
11
349.3182692308
21
109.5089679805
12
344.5582692308
22
110.0089679805
13
344.5582692308
23
110.0089679805
0
SOLID
5
21D
100
AcDbEntity
8
0
100
AcDbTrace
62
2
6
CONTINUOUS
10
320.7782692308
20
110.0089679805
11
316.0182692308
21
109.5089679805
12
320.7782692308
22
109.0089679805
13
320.7782692308
23
109.0089679805
0
ENDBLK
5
21E
100
AcDbEntity
8
0
100
AcDbBlockEnd
0
BLOCK
5
21F
100
AcDbEntity
8
0
100
AcDbBlockBegin
62
2
6
CONTINUOUS
2
*D1
70
65
10
0.0000000000
20
0.0000000000
3
*D1
1

0
TEXT
5
220
100
AcDbEntity
8
0
100
AcDbText
62
5
6
CONTINUOUS
10
329.0449735394
20
119.3273046978
7
STANDARD
40
3.0000000000
1
%%c
41
1.3333333333
72
5
11
333.0449735394
21
119.3273046978
100
AcDbText
0
TEXT
5
221
100
AcDbEntity
8
0
100
AcDbText
62
5
6
CONTINUOUS
10
333.0449735394
20
119.3273046978
7
STANDARD
40
3.0000000000
1
19
41
0.6785714286
72
5
11
337.1164021108
21
119.3273046978
100
AcDbText
0
LINE
5
222
100
AcDbEntity
8
0
100
AcDbLine
62
2
6
CONTINUOUS
10
342.1682692308
20
128.5425295858
11
342.1682692308
21
117.5773046978
0
LINE
5
223
100
AcDbEntity
8
0
100
AcDbLine
62
2
6
CONTINUOUS
10
323.1682692308
20
128.5425295858
11
323.1682692308
21
117.5773046978
0
LINE
5
224
100
AcDbEntity
8
0
100
AcDbLine
62
2
6
CONTINUOUS
10
342.1682692308
20
118.5773046978
11
332.6682692308
21
118.5773046978
0
LINE
5
225
100
AcDbEntity
8
0
100
AcDbLine
62
2
6
CONTINUOUS
10
323.1682692308
20
118.5773046978
11
332.6682692308
21
118.5773046978
0
SOLID
5
226
100
AcDbEntity
8
0
100
AcDbTrace
62
2
6
CONTINUOUS
10
337.4082692308
20
118.0773046978
11
342.1682692308
21
118.5773046978
12
337.4082692308
22
119.0773046978
13
337.4082692308
23
119.0773046978
0
SOLID
5
227
100
AcDbEntity
8
0
100
AcDbTrace
62
2
6
CONTINUOUS
10
327.9282692308
20
119.0773046978
11
323.1682692308
21
118.5773046978
12
327.9282692308
22
118.0773046978
13
327.9282692308
23
118.0773046978
0
ENDBLK
5
228
100
AcDbEntity
8
0
100
AcDbBlockEnd
0
BLOCK
5
229
100
AcDbEntity
8
0
100
AcDbBlockBegin
62
2
6
CONTINUOUS
2
*D2
70
65
10
0.0000000000
20
0.0000000000
3
*D2
1

0
TEXT
5
22A
100
AcDbEntity
8
0
100
AcDbText
62
5
6
CONTINUOUS
10
387.7068615706
20
146.0062488191
7
STANDARD
40
3.0000000000
1
40
50
90.0000000000
41
0.7857142857
72
5
11
387.7068615706
21
150.7205345334
100
AcDbText
0
LINE
5
22B
100
AcDbEntity
8
0
100
AcDbLine
62
2
6
CONTINUOUS
10
378.6847220625
20
167.8925295858
11
389.4568615706
21
167.8925295858
0
LINE
5
22C
100
AcDbEntity
8
0
100
AcDbLine
62
2
6
CONTINUOUS
10
346.7919377224
20
127.8425295858
11
389.4568615706
21
127.8425295858
0
LINE
5
22D
100
AcDbEntity
8
0
100
AcDbLine
62
2
6
CONTINUOUS
10
388.4568615706
20
167.8925295858
11
388.4568615706
21
147.8675295858
0
LINE
5
22E
100
AcDbEntity
8
0
100
AcDbLine
62
2
6
CONTINUOUS
10
388.4568615706
20
127.8425295858
11
388.4568615706
21
147.8675295858
0
SOLID
5
22F
100
AcDbEntity
8
0
100
AcDbTrace
62
2
6
CONTINUOUS
10
388.9568615706
20
163.1325295858
11
388.4568615706
21
167.8925295858
12
387.9568615706
22
163.1325295858
13
387.9568615706
23
163.1325295858
0
SOLID
5
230
100
AcDbEntity
8
0
100
AcDbTrace
62
2
6
CONTINUOUS
10
387.9568615706
20
132.6025295858
11
388.4568615706
21
127.8425295858
12
388.9568615706
22
132.6025295858
13
388.9568615706
23
132.6025295858
0
ENDBLK
5
231
100
AcDbEntity
8
0
100
AcDbBlockEnd
0
BLOCK
5
232
100
AcDbEntity
8
0
100
AcDbBlockBegin
62
2
6
CONTINUOUS
2
*D3
70
65
10
0.0000000000
20
0.0000000000
3
*D3
1

0
TEXT
5
233
100
AcDbEntity
8
0
100
AcDbText
62
5
6
CONTINUOUS
10
397.6821091981
20
157.4065318220
7
STANDARD
40
3.0000000000
1
69
50
90.0000000000
41
0.7857142857
72
5
11
397.6821091981
21
162.1208175363
100
AcDbText
0
LINE
5
234
100
AcDbEntity
8
0
100
AcDbLine
62
2
6
CONTINUOUS
10
382.2682692308
20
196.8425295858
11
399.4321091981
21
196.8425295858
0
LINE
5
235
100
AcDbEntity
8
0
100
AcDbLine
62
2
6
CONTINUOUS
10
346.7919377224
20
127.8425295858
11
399.4321091981
21
127.8425295858
0
LINE
5
236
100
AcDbEntity
8
0
100
AcDbLine
62
2
6
CONTINUOUS
10
398.4321091981
20
196.8425295858
11
398.4321091981
21
162.3425295858
0
LINE
5
237
100
AcDbEntity
8
0
100
AcDbLine
62
2
6
CONTINUOUS
10
398.4321091981
20
127.8425295858
11
398.4321091981
21
162.3425295858
0
SOLID
5
238
100
AcDbEntity
8
0
100
AcDbTrace
62
2
6
CONTINUOUS
10
398.9321091981
20
192.0825295858
11
398.4321091981
21
196.8425295858
12
397.9321091981
22
192.0825295858
13
397.9321091981
23
192.0825295858
0
SOLID
5
239
100
AcDbEntity
8
0
100
AcDbTrace
62
2
6
CONTINUOUS
10
397.9321091981
20
132.6025295858
11
398.4321091981
21
127.8425295858
12
398.9321091981
22
132.6025295858
13
398.9321091981
23
132.6025295858
0
ENDBLK
5
23A
100
AcDbEntity
8
0
100
AcDbBlockEnd
0
ENDSEC
0
SECTION
2
ENTITIES
0
DIMENSION
5
23B
100
AcDbEntity
8
0
100
AcDbDimension
62
2
6
CONTINUOUS
2
*D0
10
316.0182692308
20
109.5089679805
11
331.8691431929
21
111.7589679805
70
160
1
%%c<>
3
DIMSTYLE_1
100
AcDbAlignedDimension
13
349.3182692308
23
137.9925295858
14
316.0182692308
24
137.9925295858
50
180.000000
100
AcDbRotatedDimension
0
DIMENSION
5
23C
100
AcDbEntity
8
0
100
AcDbDimension
62
2
6
CONTINUOUS
2
*D1
10
323.1682692308
20
118.5773046978
11
333.0806878251
21
120.8273046978
70
160
1
%%c<>
3
DIMSTYLE_1
100
AcDbAlignedDimension
13
342.1682692308
23
128.5425295858
14
323.1682692308
24
128.5425295858
50
180.000000
100
AcDbRotatedDimension
0
DIMENSION
5
23D
100
AcDbEntity
8
0
100
AcDbDimension
62
2
6
CONTINUOUS
2
*D2
10
388.4568615706
20
127.8425295858
11
386.2068615706
21
148.3633916762
70
160
3
DIMSTYLE_2
100
AcDbAlignedDimension
13
378.6847220625
23
167.8925295858
14
346.7919377224
24
127.8425295858
50
270.000000
100
AcDbRotatedDimension
0
DIMENSION
5
23E
100
AcDbEntity
8
0
100
AcDbDimension
62
2
6
CONTINUOUS
2
*D3
10
398.4321091981
20
127.8425295858
11
396.1821091981
21
159.7636746791
70
160
3
DIMSTYLE_1
100
AcDbAlignedDimension
13
382.2682692308
23
196.8425295858
14
346.7919377224
24
127.8425295858
50
270.000000
100
AcDbRotatedDimension
0
LINE
5
23F
100
AcDbEntity
8
0
100
AcDbLine
62
7
6
CONTINUOUS
10
432.5000000000
20
-3.0625000000
11
232.5000000000
21
-3.0625000000
0
LINE
5
240
100
AcDbEntity
8
0
100
AcDbLine
62
7
6
CONTINUOUS
10
232.5000000000
20
-3.0625000000
11
232.5000000000
21
283.9375000000
0
LINE
5
241
100
AcDbEntity
8
0
100
AcDbLine
62
7
6
CONTINUOUS
10
432.5000000000
20
283.9375000000
11
232.5000000000
21
283.9375000000
0
LINE
5
242
100
AcDbEntity
8
0
100
AcDbLine
62
7
6
CONTINUOUS
10
432.5000000000
20
-3.0625000000
11
432.5000000000
21
283.9375000000
0
LINE
5
243
100
AcDbEntity
8
0
100
AcDbLine
62
7
6
CONTINUOUS
10
347.6248935578
20
127.8425295858
11
317.7116449045
21
127.8425295858
0
LINE
5
244
100
AcDbEntity
8
0
100
AcDbLine
62
7
6
CONTINUOUS
10
317.2786322020
20
128.0925295855
11
348.0579062595
21
128.0925295855
0
LINE
5
245
100
AcDbEntity
8
0
100
AcDbLine
62
7
6
CONTINUOUS
10
316.2682692308
20
129.8425295858
11
349.0682692308
21
129.8425295858
0
LINE
5
246
100
AcDbEntity
8
0
100
AcDbLine
62
7
6
CONTINUOUS
10
282.6682692308
20
196.3425295858
11
282.6682692308
21
180.0901248500
0
LINE
5
247
100
AcDbEntity
8
0
100
AcDbLine
62
7
6
CONTINUOUS
10
282.6682692308
20
173.5949343216
11
282.6682692308
21
168.3925295858
0
LINE
5
248
100
AcDbEntity
8
0
100
AcDbLine
62
7
6
CONTINUOUS
10
286.6682692308
20
174.9675295858
11
286.6682692308
21
178.7175295858
0
LINE
5
249
100
AcDbEntity
8
0
100
AcDbLine
62
7
6
CONTINUOUS
10
316.2682692308
20
137.8425295858
11
349.0682692308
21
137.8425295858
0
LINE
5
24A
100
AcDbEntity
8
0
100
AcDbLine
62
7
6
CONTINUOUS
10
316.0182692308
20
138.0925295858
11
349.3182692308
21
138.0925295858
0
LINE
5
24B
100
AcDbEntity
8
0
100
AcDbLine
62
7
6
CONTINUOUS
10
282.6682692308
20
168.3925295858
11
283.1682692308
21
167.8925295858
0
LINE
5
24C
100
AcDbEntity
8
0
100
AcDbLine
62
7
6
CONTINUOUS
10
316.0182692308
20
138.0925295858
11
316.2682692308
21
137.8425295858
0
LINE
5
24D
100
AcDbEntity
8
0
100
AcDbLine
62
7
6
CONTINUOUS
10
283.1682692308
20
196.8425295858
11
282.6682692308
21
196.3425295858
0
LINE
5
24E
100
AcDbEntity
8
0
100
AcDbLine
62
7
6
CONTINUOUS
10
316.2682692308
20
129.8425295858
11
317.2786322020
21
128.0925295855
0
LINE
5
24F
100
AcDbEntity
8
0
100
AcDbLine
62
7
6
CONTINUOUS
10
293.8385126001
20
192.0441892334
11
293.8385126001
21
180.0901248500
0
LINE
5
250
100
AcDbEntity
8
0
100
AcDbLine
62
7
6
CONTINUOUS
10
293.8385126001
20
173.5949343216
11
293.8385126001
21
168.3925295858
0
LINE
5
251
100
AcDbEntity
8
0
100
AcDbLine
62
7
6
CONTINUOUS
10
295.1182692308
20
197.6425295858
11
295.1182692308
21
198.1024390784
0
LINE
5
252
100
AcDbEntity
8
0
100
AcDbLine
62
7
6
CONTINUOUS
10
297.0657317121
20
244.8426123726
11
294.7859879808
21
199.3425295858
0
LINE
5
253
100
AcDbEntity
8
0
100
AcDbLine
62
7
6
CONTINUOUS
10
316.0182692308
20
149.5925295858
11
349.3182692308
21
149.5925295858
0
LINE
5
254
100
AcDbEntity
8
0
100
AcDbLine
62
7
6
CONTINUOUS
10
316.2682692308
20
149.8425295858
11
349.0682692308
21
149.8425295858
0
LINE
5
255
100
AcDbEntity
8
0
100
AcDbLine
62
7
6
CONTINUOUS
10
299.1458886470
20
174.9675295858
11
299.1458886470
21
178.7175295858
0
LINE
5
256
100
AcDbEntity
8
0
100
AcDbLine
62
7
6
CONTINUOUS
10
301.1682692308
20
167.8925295858
11
301.1682692308
21
181.8925295858
0
LINE
5
257
100
AcDbEntity
8
0
100
AcDbLine
62
7
6
CONTINUOUS
10
301.5597098435
20
181.8925295858
11
301.5597098435
21
180.0901248500
0
LINE
5
258
100
AcDbEntity
8
0
100
AcDbLine
62
7
6
CONTINUOUS
10
301.5597098435
20
173.5949343216
11
301.5597098435
21
168.3925295858
0
LINE
5
259
100
AcDbEntity
8
0
100
AcDbLine
62
7
6
CONTINUOUS
10
342.6782692308
20
245.2425295858
11
344.1782692308
21
246.7425295858
0
LINE
5
25A
100
AcDbEntity
8
0
100
AcDbLine
62
7
6
CONTINUOUS
10
285.0456739666
20
178.7175295858
11
282.6682692308
21
180.0901248500
0
LINE
5
25B
100
AcDbEntity
8
0
100
AcDbLine
62
7
6
CONTINUOUS
10
295.1182692308
20
198.1024390784
11
294.7859879808
21
199.3425295858
0
LINE
5
25C
100
AcDbEntity
8
0
100
AcDbLine
62
7
6
CONTINUOUS
10
316.2682692308
20
159.0425295858
11
349.0682692308
21
159.0425295858
0
LINE
5
25D
100
AcDbEntity
8
0
100
AcDbLine
62
7
6
CONTINUOUS
10
316.7682692308
20
159.5425295858
11
348.5682692308
21
159.5425295858
0
LINE
5
25E
100
AcDbEntity
8
0
100
AcDbLine
62
7
6
CONTINUOUS
10
372.6682692308
20
167.8925295858
11
347.8006448662
21
164.9470439815
0
LINE
5
25F
100
AcDbEntity
8
0
100
AcDbLine
62
7
6
CONTINUOUS
10
346.9182690102
20
163.9539858216
11
318.4182692308
21
163.9539858216
0
LINE
5
260
100
AcDbEntity
8
0
100
AcDbLine
62
7
6
CONTINUOUS
10
317.5358941667
20
164.9470439415
11
347.8006448662
21
164.9470439815
0
LINE
5
261
100
AcDbEntity
8
0
100
AcDbLine
62
7
6
CONTINUOUS
10
292.6682692308
20
167.8925295858
11
317.5358946517
21
164.9470438563
0
LINE
5
262
100
AcDbEntity
8
0
100
AcDbLine
62
7
6
CONTINUOUS
10
316.0182692308
20
149.5925295858
11
316.0182692308
21
138.0925295858
0
LINE
5
263
100
AcDbEntity
8
0
100
AcDbLine
62
7
6
CONTINUOUS
10
316.2682692308
20
159.0425295858
11
316.2682692308
21
149.8425295858
0
LINE
5
264
100
AcDbEntity
8
0
100
AcDbLine
62
7
6
CONTINUOUS
10
316.2682692308
20
137.8425295858
11
316.2682692308
21
129.8425295858
0
LINE
5
265
100
AcDbEntity
8
0
100
AcDbLine
62
7
6
CONTINUOUS
10
382.1682572782
20
167.8925295858
11
283.1682841273
21
167.8925295858
0
LINE
5
266
100
AcDbEntity
8
0
100
AcDbLine
62
7
6
CONTINUOUS
10
382.6682692308
20
168.3925295858
11
343.1571438067
21
168.3925295858
0
LINE
5
267
100
AcDbEntity
8
0
100
AcDbLine
62
7
6
CONTINUOUS
10
322.1793946548
20
168.3925295858
11
301.5597098435
21
168.3925295858
0
LINE
5
268
100
AcDbEntity
8
0
100
AcDbLine
62
7
6
CONTINUOUS
10
293.8385126001
20
168.3925295858
11
282.6682692308
21
168.3925295858
0
LINE
5
269
100
AcDbEntity
8
0
100
AcDbLine
62
7
6
CONTINUOUS
10
349.0682692308
20
149.8425295858
11
349.3182692308
21
149.5925295858
0
LINE
5
26A
100
AcDbEntity
8
0
100
AcDbLine
62
7
6
CONTINUOUS
10
318.4182692308
20
163.9539858216
11
318.4182692308
21
159.5425295858
0
LINE
5
26B
100
AcDbEntity
8
0
100
AcDbLine
62
7
6
CONTINUOUS
10
322.1793946548
20
181.8925295858
11
322.1793946548
21
180.0901248500
0
LINE
5
26C
100
AcDbEntity
8
0
100
AcDbLine
62
7
6
CONTINUOUS
10
322.1793946548
20
173.5949343216
11
322.1793946548
21
168.3925295858
0
LINE
5
26D
100
AcDbEntity
8
0
100
AcDbLine
62
7
6
CONTINUOUS
10
322.6582692308
20
245.2425295858
11
322.6582692308
21
238.7425295858
0
LINE
5
26E
100
AcDbEntity
8
0
100
AcDbLine
62
7
6
CONTINUOUS
10
322.6682692308
20
167.9052315262
11
322.6682692308
21
181.8925295858
0
LINE
5
26F
100
AcDbEntity
8
0
100
AcDbLine
62
7
6
CONTINUOUS
10
282.6682692308
20
173.5949343216
11
285.0456739666
21
174.9675295858
0
LINE
5
270
100
AcDbEntity
8
0
100
AcDbLine
62
7
6
CONTINUOUS
10
382.6682692308
20
173.5949343216
11
343.1571438067
21
173.5949343216
0
LINE
5
271
100
AcDbEntity
8
0
100
AcDbLine
62
7
6
CONTINUOUS
10
322.1793946548
20
173.5949343216
11
301.5597098435
21
173.5949343216
0
LINE
5
272
100
AcDbEntity
8
0
100
AcDbLine
62
7
6
CONTINUOUS
10
293.8385126001
20
173.5949343216
11
282.6682692308
21
173.5949343216
0
LINE
5
273
100
AcDbEntity
8
0
100
AcDbLine
62
7
6
CONTINUOUS
10
285.0456844285
20
174.9675295858
11
299.1458886470
21
174.9675295858
0
LINE
5
274
100
AcDbEntity
8
0
100
AcDbLine
62
7
6
CONTINUOUS
10
301.1682692308
20
174.9675295858
11
322.6682692308
21
174.9675295858
0
LINE
5
275
100
AcDbEntity
8
0
100
AcDbLine
62
7
6
CONTINUOUS
10
342.6682692308
20
174.9675295858
11
380.2908597600
21
174.9675295858
0
LINE
5
276
100
AcDbEntity
8
DEFAULT_2
100
AcDbLine
62
8
6
HIDDEN
10
323.1682692308
20
128.6425295858
11
323.1682692308
21
148.3425295858
0
LINE
5
277
100
AcDbEntity
8
0
100
AcDbLine
62
7
6
CONTINUOUS
10
380.2908597600
20
178.7175295858
11
342.6682692308
21
178.7175295858
0
LINE
5
278
100
AcDbEntity
8
0
100
AcDbLine
62
7
6
CONTINUOUS
10
322.6682692308
20
178.7175295858
11
301.1682692308
21
178.7175295858
0
LINE
5
279
100
AcDbEntity
8
0
100
AcDbLine
62
7
6
CONTINUOUS
10
285.0456844285
20
178.7175295858
11
299.1458886470
21
178.7175295858
0
LINE
5
27A
100
AcDbEntity
8
0
100
AcDbLine
62
7
6
CONTINUOUS
10
382.6682692308
20
180.0901248500
11
343.1571438067
21
180.0901248500
0
LINE
5
27B
100
AcDbEntity
8
0
100
AcDbLine
62
7
6
CONTINUOUS
10
322.1793946548
20
180.0901248500
11
301.5597098435
21
180.0901248500
0
LINE
5
27C
100
AcDbEntity
8
0
100
AcDbLine
62
7
6
CONTINUOUS
10
293.8385126001
20
180.0901248500
11
282.6682692308
21
180.0901248500
0
LINE
5
27D
100
AcDbEntity
8
0
100
AcDbLine
62
7
6
CONTINUOUS
10
322.6682692308
20
181.8925295858
11
322.1793946548
21
181.8925295858
0
LINE
5
27E
100
AcDbEntity
8
0
100
AcDbLine
62
7
6
CONTINUOUS
10
301.1682692308
20
181.8925295858
11
301.5597098435
21
181.8925295858
0
LINE
5
27F
100
AcDbEntity
8
0
100
AcDbLine
62
7
6
CONTINUOUS
10
342.6682692308
20
181.8925295858
11
343.1571438067
21
181.8925295858
0
LINE
5
280
100
AcDbEntity
8
0
100
AcDbLine
62
7
6
CONTINUOUS
10
348.5682692308
20
159.5425295858
11
349.0682692308
21
159.0425295858
0
LINE
5
281
100
AcDbEntity
8
DEFAULT_2
100
AcDbLine
62
8
6
HIDDEN
10
342.1682692308
20
128.6425295858
11
342.1682692308
21
148.3425295858
0
LINE
5
282
100
AcDbEntity
8
0
100
AcDbLine
62
7
6
CONTINUOUS
10
342.6682692308
20
167.9052315262
11
342.6682692308
21
181.8925295858
0
LINE
5
283
100
AcDbEntity
8
0
100
AcDbLine
62
7
6
CONTINUOUS
10
342.6782692308
20
245.2425295858
11
342.6782692308
21
238.7425295858
0
LINE
5
284
100
AcDbEntity
8
0
100
AcDbLine
62
7
6
CONTINUOUS
10
343.1571438067
20
181.8925295858
11
343.1571438067
21
180.0901248500
0
LINE
5
285
100
AcDbEntity
8
0
100
AcDbLine
62
7
6
CONTINUOUS
10
343.1571438067
20
173.5949343216
11
343.1571438067
21
168.3925295858
0
LINE
5
286
100
AcDbEntity
8
0
100
AcDbLine
62
7
6
CONTINUOUS
10
316.7682692308
20
159.5425295858
11
316.2682692308
21
159.0425295858
0
LINE
5
287
100
AcDbEntity
8
0
100
AcDbLine
62
7
6
CONTINUOUS
10
382.6682692308
20
196.3425295858
11
282.6682692308
21
196.3425295858
0
LINE
5
288
100
AcDbEntity
8
0
100
AcDbLine
62
7
6
CONTINUOUS
10
382.1682692308
20
196.8425295858
11
283.1682692308
21
196.8425295858
0
LINE
5
289
100
AcDbEntity
8
0
100
AcDbLine
62
7
6
CONTINUOUS
10
295.1182692308
20
197.6425295858
11
370.2182692308
21
197.6425295858
0
LINE
5
28A
100
AcDbEntity
8
0
100
AcDbLine
62
7
6
CONTINUOUS
10
295.1182692308
20
198.1024390784
11
370.2182692308
21
198.1024390784
0
LINE
5
28B
100
AcDbEntity
8
0
100
AcDbLine
62
7
6
CONTINUOUS
10
346.9182692308
20
163.9539858216
11
346.9182692308
21
159.5425295858
0
LINE
5
28C
100
AcDbEntity
8
0
100
AcDbLine
62
7
6
CONTINUOUS
10
316.2682692308
20
149.8425295858
11
316.0182692308
21
149.5925295858
0
LINE
5
28D
100
AcDbEntity
8
0
100
AcDbLine
62
7
6
CONTINUOUS
10
370.5505504808
20
199.3425295858
11
294.7859879808
21
199.3425295858
0
LINE
5
28E
100
AcDbEntity
8
0
100
AcDbLine
62
7
6
CONTINUOUS
10
382.6682692308
20
173.5949343216
11
380.2908644950
21
174.9675295858
0
LINE
5
28F
100
AcDbEntity
8
0
100
AcDbLine
62
7
6
CONTINUOUS
10
349.0682692308
20
159.0425295858
11
349.0682692308
21
149.8425295858
0
LINE
5
290
100
AcDbEntity
8
0
100
AcDbLine
62
7
6
CONTINUOUS
10
349.0682692308
20
137.8425295858
11
349.0682692308
21
129.8425295858
0
LINE
5
291
100
AcDbEntity
8
0
100
AcDbLine
62
7
6
CONTINUOUS
10
349.3182692308
20
149.5925295858
11
349.3182692308
21
138.0925295858
0
LINE
5
292
100
AcDbEntity
8
0
100
AcDbLine
62
7
6
CONTINUOUS
10
380.2908644950
20
178.7175295858
11
382.6682692308
21
180.0901248500
0
LINE
5
293
100
AcDbEntity
8
0
100
AcDbLine
62
7
6
CONTINUOUS
10
370.2182692308
20
198.1024390784
11
370.5505504808
21
199.3425295858
0
LINE
5
294
100
AcDbEntity
8
0
100
AcDbLine
62
7
6
CONTINUOUS
10
322.6582692308
20
245.2425295858
11
321.1582692308
21
246.7425295858
0
LINE
5
295
100
AcDbEntity
8
0
100
AcDbLine
62
7
6
CONTINUOUS
10
368.2708067495
20
244.8426123726
11
370.5505504808
21
199.3425295858
0
LINE
5
296
100
AcDbEntity
8
0
100
AcDbLine
62
7
6
CONTINUOUS
10
370.2182692308
20
197.6425295858
11
370.2182692308
21
198.1024390784
0
LINE
5
297
100
AcDbEntity
8
0
100
AcDbLine
62
7
6
CONTINUOUS
10
382.1682692308
20
196.8425295858
11
382.6682692308
21
196.3425295858
0
LINE
5
298
100
AcDbEntity
8
0
100
AcDbLine
62
7
6
CONTINUOUS
10
378.6682692308
20
174.9675295858
11
378.6682692308
21
178.7175295858
0
LINE
5
299
100
AcDbEntity
8
0
100
AcDbLine
62
7
6
CONTINUOUS
10
349.0682692308
20
129.8425295858
11
348.0579062595
21
128.0925295855
0
LINE
5
29A
100
AcDbEntity
8
0
100
AcDbLine
62
7
6
CONTINUOUS
10
349.3182692308
20
138.0925295858
11
349.0682692308
21
137.8425295858
0
LINE
5
29B
100
AcDbEntity
8
0
100
AcDbLine
62
7
6
CONTINUOUS
10
382.6682692308
20
196.3425295858
11
382.6682692308
21
195.3425295858
0
LINE
5
29C
100
AcDbEntity
8
0
100
AcDbLine
62
7
6
CONTINUOUS
10
382.6682692308
20
184.3425295858
11
382.6682692308
21
180.0901248500
0
LINE
5
29D
100
AcDbEntity
8
0
100
AcDbLine
62
7
6
CONTINUOUS
10
382.6682692308
20
173.5949343216
11
382.6682692308
21
168.3925295858
0
LINE
5
29E
100
AcDbEntity
8
0
100
AcDbLine
62
7
6
CONTINUOUS
10
382.6682692308
20
168.3925295858
11
382.1682692308
21
167.8925295858
0
LINE
5
29F
100
AcDbEntity
8
0
100
AcDbLine
62
7
6
CONTINUOUS
10
345.0979825735
20
236.7425295858
11
320.2385558880
21
236.7425295858
0
LINE
5
2A0
100
AcDbEntity
8
0
100
AcDbLine
62
7
6
CONTINUOUS
10
316.5726632528
20
238.7425295858
11
322.6582692308
21
238.7425295858
0
LINE
5
2A1
100
AcDbEntity
8
0
100
AcDbLine
62
7
6
CONTINUOUS
10
342.6782692308
20
238.7425295858
11
348.7638752110
21
238.7425295858
0
LINE
5
2A2
100
AcDbEntity
8
0
100
AcDbLine
62
7
6
CONTINUOUS
10
297.0657317121
20
244.8426123726
11
317.5770153513
21
244.8426123726
0
LINE
5
2A3
100
AcDbEntity
8
0
100
AcDbLine
62
7
6
CONTINUOUS
10
347.7595231102
20
244.8426123726
11
368.2708067495
21
244.8426123726
0
LINE
5
2A4
100
AcDbEntity
8
0
100
AcDbLine
62
7
6
CONTINUOUS
10
317.7299413969
20
245.2425295858
11
322.6582692308
21
245.2425295858
0
LINE
5
2A5
100
AcDbEntity
8
0
100
AcDbLine
62
7
6
CONTINUOUS
10
342.6782692308
20
245.2425295858
11
347.6065970647
21
245.2425295858
0
LINE
5
2A6
100
AcDbEntity
8
0
100
AcDbLine
62
7
6
CONTINUOUS
10
299.0632260014
20
246.7425295858
11
321.1582692308
21
246.7425295858
0
LINE
5
2A7
100
AcDbEntity
8
0
100
AcDbLine
62
40
6
CONTINUOUS
10
342.6782695741
20
246.7425311117
11
344.1782692308
21
246.7425295858
0
LINE
5
2A8
100
AcDbEntity
8
0
100
AcDbLine
62
7
6
CONTINUOUS
10
344.1782692308
20
246.7425295858
11
366.2733124602
21
246.7425295858
0
ARC
5
2A9
100
AcDbEntity
8
0
100
AcDbCircle
62
7
6
CONTINUOUS
10
317.7116449037
20
128.3425295858
40
0.5000000000
100
AcDbArc
50
210.0000000444
51
270.0000000000
0
ARC
5
2AA
100
AcDbEntity
8
0
100
AcDbCircle
62
7
6
CONTINUOUS
10
347.6248935578
20
128.3425295858
40
0.5000000000
100
AcDbArc
50
270.0000000000
51
329.9999999556
0
ARC
5
2AB
100
AcDbEntity
8
0
100
AcDbCircle
62
7
6
CONTINUOUS
10
347.9182692308
20
163.9539858216
40
1.0000000000
100
AcDbArc
50
96.7550176542
51
180.0000000000
0
ARC
5
2AC
100
AcDbEntity
8
0
100
AcDbCircle
62
7
6
CONTINUOUS
10
317.4182692308
20
163.9539858216
40
1.0000000000
100
AcDbArc
50
0.0000000000
51
83.2449213950
0
ARC
5
2AD
100
AcDbEntity
8
0
100
AcDbCircle
62
7
6
CONTINUOUS
10
371.2182692308
20
197.6425295858
40
1.0000000000
100
AcDbArc
50
180.0000000000
51
234.6418826191
0
ARC
5
2AE
100
AcDbEntity
8
0
100
AcDbCircle
62
7
6
CONTINUOUS
10
294.1182692308
20
197.6425295858
40
1.0000000000
100
AcDbArc
50
305.3581173809
51
360.0000000000
0
ARC
5
2AF
100
AcDbEntity
8
0
100
AcDbCircle
62
7
6
CONTINUOUS
10
366.2733124602
20
244.7425295858
40
2.0000000000
100
AcDbArc
50
2.8683586220
51
90.0000000000
0
ARC
5
2B0
100
AcDbEntity
8
0
100
AcDbCircle
62
7
6
CONTINUOUS
10
299.0632260014
20
244.7425295858
40
2.0000000000
100
AcDbArc
50
90.0000000000
51
177.1316413780
0
ARC
5
2B1
100
AcDbEntity
8
0
100
AcDbCircle
62
7
6
CONTINUOUS
10
324.6582692308
20
238.7425295858
40
2.0000000000
100
AcDbArc
50
180.0000000000
51
270.0000000000
0
ARC
5
2B2
100
AcDbEntity
8
0
100
AcDbCircle
62
7
6
CONTINUOUS
10
291.1682692308
20
181.8925295858
40
10.0000000000
100
AcDbArc
50
0.0000000000
51
70.7624233892
0
ARC
5
2B3
100
AcDbEntity
8
0
100
AcDbCircle
62
7
6
CONTINUOUS
10
332.6682692308
20
181.8925295858
40
10.0000000000
100
AcDbArc
50
0.0000000000
51
180.0000000000
0
ARC
5
2B4
100
AcDbEntity
8
0
100
AcDbCircle
62
7
6
CONTINUOUS
10
340.6782692308
20
238.7425295858
40
2.0000000000
100
AcDbArc
50
292.5000006943
51
360.0000000000
0
CIRCLE
5
2B5
100
AcDbEntity
8
0
100
AcDbCircle
62
7
6
CONTINUOUS
10
332.6682692308
20
211.8425295858
40
6.0000000000
0
SPLINE
5
2B6
100
AcDbEntity
8
0
100
AcDbSpline
62
7
6
CONTINUOUS
70
0
71
3
72
38
73
34
74
32
42
0.0000001000
43
0.0000001000
44
0.0000000001
40
0.0000000000
40
0.0000000000
40
0.0000000000
40
0.0000000000
40
0.0024058140
40
0.0096264481
40
0.0216272671
40
0.0383668321
40
0.0597157209
40
0.0856609731
40
0.1159560484
40
0.1503683117
40
0.1886301424
40
0.2303037669
40
0.2750629528
40
0.3223073429
40
0.3716400911
40
0.4223670662
40
0.4740502458
40
0.5259599453
40
0.5776431090
40
0.6283698451
40
0.6777025675
40
0.7249463973
40
0.7697054509
40
0.8113782694
40
0.8496400568
40
0.8840512462
40
0.9143455461
40
0.9402891795
40
0.9616361911
40
0.9783740687
40
0.9903742985
40
0.9975941044
40
1.0000000000
40
1.0000000000
40
1.0000000000
40
1.0000000000
10
382.6682692308
20
184.3425295858
30
0.0000000000
10
382.6673978767
20
184.3513223401
30
0.0000000000
10
382.6639194214
20
184.3865058286
30
0.0000000000
10
382.6561775484
20
184.4655580465
30
0.0000000000
10
382.6435473562
20
184.5970267623
30
0.0000000000
10
382.6264616731
20
184.7801946252
30
0.0000000000
10
382.6054804286
20
185.0144338566
30
0.0000000000
10
382.5813578133
20
185.2983738376
30
0.0000000000
10
382.5549881266
20
185.6302692904
30
0.0000000000
10
382.5274181275
20
186.0074403345
30
0.0000000000
10
382.4997877895
20
186.4264988296
30
0.0000000000
10
382.4732571320
20
186.8837004216
30
0.0000000000
10
382.4490082986
20
187.3740634341
30
0.0000000000
10
382.4281099818
20
187.8927356277
30
0.0000000000
10
382.4115346200
20
188.4334936798
30
0.0000000000
10
382.4000322372
20
188.9906901350
30
0.0000000000
10
382.3941469309
20
189.5574396801
30
0.0000000000
10
382.3941475136
20
190.1277317209
30
0.0000000000
10
382.4000339670
20
190.6944803175
30
0.0000000000
10
382.4115374498
20
191.2516757185
30
0.0000000000
10
382.4281137903
20
191.7924307090
30
0.0000000000
10
382.4490129951
20
192.3111002261
30
0.0000000000
10
382.4732624595
20
192.8014576968
30
0.0000000000
10
382.4997937040
20
193.2586556432
30
0.0000000000
10
382.5274242686
20
193.6777070448
30
0.0000000000
10
382.5549943390
20
194.0548711139
30
0.0000000000
10
382.5813634636
20
194.3867538336
30
0.0000000000
10
382.6054850655
20
194.6706781563
30
0.0000000000
10
382.6264647908
20
194.9048984102
30
0.0000000000
10
382.6435491340
20
195.0880510763
30
0.0000000000
10
382.6561782620
20
195.2195084389
30
0.0000000000
10
382.6639196619
20
195.2985557737
30
0.0000000000
10
382.6673978472
20
195.3337365335
30
0.0000000000
10
382.6682692308
20
195.3425295858
30
0.0000000000
11
382.6682692308
21
184.3425295858
31
0.0000000000
11
382.6656612553
21
184.3689084514
31
0.0000000000
11
382.6579070093
21
184.4480872449
31
0.0000000000
11
382.6452623773
21
184.5797073494
31
0.0000000000
11
382.6281328502
21
184.7633481935
31
0.0000000000
11
382.6071479650
21
184.9976342184
31
0.0000000000
11
382.5829497379
21
185.2824752967
31
0.0000000000
11
382.5565139369
21
185.6152206466
31
0.0000000000
11
382.5288743969
21
185.9933692511
31
0.0000000000
11
382.5011409200
21
186.4140282734
31
0.0000000000
11
382.4745438792
21
186.8724210015
31
0.0000000000
11
382.4501893618
21
187.3649799481
31
0.0000000000
11
382.4292354713
21
187.8851009208
31
0.0000000000
11
382.4125847063
21
188.4283984247
31
0.0000000000
11
382.4010511081
21
188.9871937232
31
0.0000000000
11
382.3951390339
21
189.5566128915
31
0.0000000000
11
382.3951396182
21
190.1285585661
31
0.0000000000
11
382.4010528526
21
190.6979775466
31
0.0000000000
11
382.4125875209
21
191.2567701885
31
0.0000000000
11
382.4292393536
21
191.8000673760
31
0.0000000000
11
382.4501939926
21
192.3201821405
31
0.0000000000
11
382.4745493448
21
192.8127395859
31
0.0000000000
11
382.5011466691
21
193.2711234023
31
0.0000000000
11
382.5288808086
21
193.6917819027
31
0.0000000000
11
382.5565200656
21
194.0699186643
31
0.0000000000
11
382.5829556378
21
194.4026554617
31
0.0000000000
11
382.6071526708
21
194.6874787405
31
0.0000000000
11
382.6281358903
21
194.9217441493
31
0.0000000000
11
382.6452637678
21
195.1053664745
31
0.0000000000
11
382.6579078054
21
195.2369801142
31
0.0000000000
11
382.6656611671
21
195.3161498261
31
0.0000000000
11
382.6682692308
21
195.3425295858
31
0.0000000000
0
SPLINE
5
2B7
100
AcDbEntity
8
0
100
AcDbSpline
62
7
6
CONTINUOUS
70
0
71
3
72
36
73
32
74
30
42
0.0000001000
43
0.0000001000
44
0.0000000001
40
0.0000000000
40
0.0000000000
40
0.0000000000
40
0.0000000000
40
0.0514038066
40
0.0979036070
40
0.1398626725
40
0.1776561248
40
0.2116582910
40
0.2421761933
40
0.2695341344
40
0.2940547313
40
0.3157921330
40
0.3347471416
40
0.3512427097
40
0.3660183549
40
0.3798634162
40
0.3939258888
40
0.4096163407
40
0.4279897598
40
0.4493610996
40
0.4734189032
40
0.5007353719
40
0.5318120264
40
0.5667331197
40
0.6052515215
40
0.6469102663
40
0.6922510336
40
0.7419359300
40
0.7965610733
40
0.8569255038
40
0.9243078246
40
1.0000000000
40
1.0000000000
40
1.0000000000
40
1.0000000000
10
317.7299413969
20
245.2425295858
30
0.0000000000
10
317.6791290796
20
245.2747218374
30
0.0000000000
10
317.5827159458
20
245.3366132216
30
0.0000000000
10
317.4462684982
20
245.4270027728
30
0.0000000000
10
317.3244958138
20
245.5106713254
30
0.0000000000
10
317.2163358307
20
245.5882832328
30
0.0000000000
10
317.1208389205
20
245.6605206056
30
0.0000000000
10
317.0371822207
20
245.7280906316
30
0.0000000000
10
316.9647033598
20
245.7917312601
30
0.0000000000
10
316.9031307421
20
245.8520583161
30
0.0000000000
10
316.8526789323
20
245.9094380586
30
0.0000000000
10
316.8137848528
20
245.9640910003
30
0.0000000000
10
316.7867153839
20
246.0165573683
30
0.0000000000
10
316.7719407560
20
246.0677048582
30
0.0000000000
10
316.7706216182
20
246.1182740159
30
0.0000000000
10
316.7840791409
20
246.1681981918
30
0.0000000000
10
316.8129802153
20
246.2171794287
30
0.0000000000
10
316.8572588240
20
246.2650700952
30
0.0000000000
10
316.9159199003
20
246.3115847992
30
0.0000000000
10
316.9880726045
20
246.3569745532
30
0.0000000000
10
317.0736428114
20
246.4017119761
30
0.0000000000
10
317.1734025421
20
246.4462486210
30
0.0000000000
10
317.2874903609
20
246.4904361713
30
0.0000000000
10
317.4150911624
20
246.5336575393
30
0.0000000000
10
317.5559386493
20
246.5754307921
30
0.0000000000
10
317.7108555903
20
246.6153578275
30
0.0000000000
10
317.8819381207
20
246.6529221808
30
0.0000000000
10
318.0716368143
20
246.6870750685
30
0.0000000000
10
318.2831351165
20
246.7160922451
30
0.0000000000
10
318.5203584091
20
246.7371581999
30
0.0000000000
10
318.6878254695
20
246.7425295858
30
0.0000000000
10
318.7763989989
20
246.7425295858
30
0.0000000000
11
317.7299413969
21
245.2425295858
31
0.0000000000
11
317.5781347518
21
245.3400941098
31
0.0000000000
11
317.4421090621
21
245.4303390674
31
0.0000000000
11
317.3207804476
21
245.5138638265
31
0.0000000000
11
317.2130780212
21
245.5913427248
31
0.0000000000
11
317.1179963554
21
245.6635073249
31
0.0000000000
11
317.0348019941
21
245.7310089951
31
0.0000000000
11
316.9628312497
21
245.7946024398
31
0.0000000000
11
316.9016185802
21
245.8551241532
31
0.0000000000
11
316.8516124832
21
245.9127662988
31
0.0000000000
11
316.8135428080
21
245.9673427183
31
0.0000000000
11
316.7876285355
21
246.0191291276
31
0.0000000000
11
316.7738982823
21
246.0691494421
31
0.0000000000
11
316.7729607658
21
246.1177440738
31
0.0000000000
11
316.7855164251
21
246.1654876262
31
0.0000000000
11
316.8128016256
21
246.2133368071
31
0.0000000000
11
316.8558891955
21
246.2613346950
31
0.0000000000
11
316.9141781571
21
246.3085697101
31
0.0000000000
11
316.9853585324
21
246.3540247400
31
0.0000000000
11
317.0701395938
21
246.3988370335
31
0.0000000000
11
317.1696219130
21
246.4436163396
31
0.0000000000
11
317.2838466345
21
246.4881304484
31
0.0000000000
11
317.4118596152
21
246.5316879419
31
0.0000000000
11
317.5520315698
21
246.5733935926
31
0.0000000000
11
317.7061444394
21
246.6131997504
31
0.0000000000
11
317.8764974550
21
246.6506498781
31
0.0000000000
11
318.0652264070
21
246.6846317583
31
0.0000000000
11
318.2751777496
21
246.7133908107
31
0.0000000000
11
318.5108089020
21
246.7342030402
31
0.0000000000
11
318.7763989989
21
246.7425295858
31
0.0000000000
0
SPLINE
5
2B8
100
AcDbEntity
8
0
100
AcDbSpline
62
7
6
CONTINUOUS
70
0
71
3
72
10
73
6
74
4
42
0.0000001000
43
0.0000001000
44
0.0000000001
40
0.0000000000
40
0.0000000000
40
0.0000000000
40
0.0000000000
40
0.2899779631
40
0.6232721842
40
1.0000000000
40
1.0000000000
40
1.0000000000
40
1.0000000000
10
317.5770153513
20
244.8426123726
30
0.0000000000
10
317.5823732278
20
244.8839423657
30
0.0000000000
10
317.6009672950
20
244.9719819952
30
0.0000000000
10
317.6518353222
20
245.1069275640
30
0.0000000000
10
317.7011552936
20
245.1966723302
30
0.0000000000
10
317.7299413969
20
245.2425295858
30
0.0000000000
11
317.5770153513
21
244.8426123726
31
0.0000000000
11
317.6025129329
21
244.9650123312
31
0.0000000000
11
317.6525351154
21
245.0997289685
31
0.0000000000
11
317.7299413969
21
245.2425295858
31
0.0000000000
0
SPLINE
5
2B9
100
AcDbEntity
8
0
100
AcDbSpline
62
7
6
CONTINUOUS
70
0
71
3
72
10
73
6
74
4
42
0.0000001000
43
0.0000001000
44
0.0000000001
40
0.0000000000
40
0.0000000000
40
0.0000000000
40
0.0000000000
40
0.3761455418
40
0.7093162547
40
1.0000000000
40
1.0000000000
40
1.0000000000
40
1.0000000000
10
347.6065970647
20
245.2425295858
30
0.0000000000
10
347.6353386773
20
245.1967432052
30
0.0000000000
10
347.6846169234
20
245.1070931074
30
0.0000000000
10
347.7355231022
20
244.9721631674
30
0.0000000000
10
347.7541521928
20
244.8840429616
30
0.0000000000
10
347.7595231102
20
244.8426123726
30
0.0000000000
11
347.6065970647
21
245.2425295858
31
0.0000000000
11
347.6838990563
21
245.0999579945
31
0.0000000000
11
347.7339414218
21
244.9653056543
31
0.0000000000
11
347.7595231102
21
244.8426123726
31
0.0000000000
0
SPLINE
5
2BA
100
AcDbEntity
8
0
100
AcDbSpline
62
7
6
CONTINUOUS
70
0
71
3
72
34
73
30
74
28
42
0.0000001000
43
0.0000001000
44
0.0000000001
40
0.0000000000
40
0.0000000000
40
0.0000000000
40
0.0000000000
40
0.0756652558
40
0.1428900767
40
0.2030007816
40
0.2573007703
40
0.3066157146
40
0.3515548764
40
0.3927977130
40
0.4309074372
40
0.4654097120
40
0.4960741620
40
0.5230688923
40
0.5468732765
40
0.5680703452
40
0.5872585255
40
0.6054309830
40
0.6231171235
40
0.6410306375
40
0.6602004187
40
0.6821623041
40
0.7075287322
40
0.7363215857
40
0.7687408334
40
0.8052656964
40
0.8462367257
40
0.8920656056
40
0.9431825451
40
1.0000000000
40
1.0000000000
40
1.0000000000
40
1.0000000000
10
346.5601394626
20
246.7425295858
30
0.0000000000
10
346.6486724363
20
246.7425295858
30
0.0000000000
10
346.8159065350
20
246.7371681312
30
0.0000000000
10
347.0525961299
20
246.7161713666
30
0.0000000000
10
347.2632253517
20
246.6873255859
30
0.0000000000
10
347.4518264633
20
246.6534582416
30
0.0000000000
10
347.6216639778
20
246.6162951784
30
0.0000000000
10
347.7752607673
20
246.5768831730
30
0.0000000000
10
347.9147809674
20
246.5357385568
30
0.0000000000
10
348.0410849479
20
246.4932734327
30
0.0000000000
10
348.1539518229
20
246.4499946561
30
0.0000000000
10
348.2526924636
20
246.4065280117
30
0.0000000000
10
348.3375846763
20
246.3630346710
30
0.0000000000
10
348.4095671390
20
246.3190850864
30
0.0000000000
10
348.4695744588
20
246.2736305207
30
0.0000000000
10
348.5179905333
20
246.2247130087
30
0.0000000000
10
348.5529741654
20
246.1697211854
30
0.0000000000
10
348.5684201032
20
246.1072819892
30
0.0000000000
10
348.5600554265
20
246.0425031312
30
0.0000000000
10
348.5321602532
20
245.9786683770
30
0.0000000000
10
348.4881859880
20
245.9141340119
30
0.0000000000
10
348.4292091878
20
245.8471935798
30
0.0000000000
10
348.3560600197
20
245.7769990880
30
0.0000000000
10
348.2690245167
20
245.7027492789
30
0.0000000000
10
348.1677088016
20
245.6234888536
30
0.0000000000
10
348.0512674167
20
245.5382334274
30
0.0000000000
10
347.9187407391
20
245.4461385012
30
0.0000000000
10
347.7689944048
20
245.3463998085
30
0.0000000000
10
347.6627549932
20
245.2781085608
30
0.0000000000
10
347.6065970647
20
245.2425295858
30
0.0000000000
11
346.5601394626
21
246.7425295858
31
0.0000000000
11
346.8256080690
21
246.7342105758
31
0.0000000000
11
347.0606662676
21
246.7134701078
31
0.0000000000
11
347.2697206849
21
246.6848854963
31
0.0000000000
11
347.4573223775
21
246.6511945987
31
0.0000000000
11
347.6264166761
21
246.6141502342
31
0.0000000000
11
347.7791916994
21
246.5748668814
31
0.0000000000
11
347.9180154380
21
246.5338023116
31
0.0000000000
11
348.0447572075
21
246.4910062394
31
0.0000000000
11
348.1577537654
21
246.4474259341
31
0.0000000000
11
348.2561463384
21
246.4037818448
31
0.0000000000
11
348.3403028084
21
246.3602333212
31
0.0000000000
11
348.4113559319
21
246.3162634253
31
0.0000000000
11
348.4702504900
21
246.2707922914
31
0.0000000000
11
348.5169452524
21
246.2222519509
31
0.0000000000
11
348.5500757866
21
246.1677417632
31
0.0000000000
11
348.5644889249
21
246.1073564506
31
0.0000000000
11
348.5574807126
21
246.0448685000
31
0.0000000000
11
348.5317921308
21
245.9826755226
31
0.0000000000
11
348.4892807925
21
245.9183661774
31
0.0000000000
11
348.4310309015
21
245.8510221601
31
0.0000000000
11
348.3585060683
21
245.7806309063
31
0.0000000000
11
348.2722041282
21
245.7064564702
31
0.0000000000
11
348.1714211293
21
245.6272079616
31
0.0000000000
11
348.0555305382
21
245.5420471585
31
0.0000000000
11
347.9235413854
21
245.4500835611
31
0.0000000000
11
347.7742937364
21
245.3504833439
31
0.0000000000
11
347.6065970647
21
245.2425295858
31
0.0000000000
0
SPLINE
5
2BB
100
AcDbEntity
8
0
100
AcDbSpline
62
7
6
CONTINUOUS
70
0
71
3
72
14
73
10
74
8
42
0.0000001000
43
0.0000001000
44
0.0000000001
40
0.0000000000
40
0.0000000000
40
0.0000000000
40
0.0000000000
40
0.0996597975
40
0.2127645121
40
0.3428914771
40
0.4809838144
40
0.6426824710
40
0.8074631434
40
1.0000000000
40
1.0000000000
40
1.0000000000
40
1.0000000000
10
316.5726632528
20
238.7425295858
30
0.0000000000
10
316.6182166611
20
238.9428549919
30
0.0000000000
10
316.7105670522
20
239.3716523460
30
0.0000000000
10
316.8467599945
20
240.0652775512
30
0.0000000000
10
316.9859533437
20
240.8389505318
30
0.0000000000
10
317.1311026976
20
241.7132413125
30
0.0000000000
10
317.2766516170
20
242.6598100687
30
0.0000000000
10
317.4283232620
20
243.7189234701
30
0.0000000000
10
317.5259899786
20
244.4490089914
30
0.0000000000
10
317.5770153513
20
244.8426123726
30
0.0000000000
11
316.5726632528
21
238.7425295858
31
0.0000000000
11
316.7030106177
21
239.3449065412
31
0.0000000000
11
316.8383073220
21
240.0311614774
31
0.0000000000
11
316.9813156350
21
240.8230868443
31
0.0000000000
11
317.1215854728
21
241.6654821721
31
0.0000000000
11
317.2739987849
21
242.6537793996
31
0.0000000000
11
317.4187761838
21
243.6624830326
31
0.0000000000
11
317.5770153513
21
244.8426123726
31
0.0000000000
0
SPLINE
5
2BC
100
AcDbEntity
8
0
100
AcDbSpline
62
7
6
CONTINUOUS
70
0
71
3
72
8
73
4
74
2
42
0.0000001000
43
0.0000001000
44
0.0000000001
40
0.0000000000
40
0.0000000000
40
0.0000000000
40
0.0000000000
40
1.0000000000
40
1.0000000000
40
1.0000000000
40
1.0000000000
10
301.1682692308
20
168.0077188883
30
0.0000000000
10
301.2117516548
20
168.0497226253
30
0.0000000000
10
301.2551095951
20
168.0918554432
30
0.0000000000
10
301.2983452949
20
168.1341132460
30
0.0000000000
11
301.1682692308
21
168.0077188883
31
0.0000000000
11
301.2983452949
21
168.1341132460
31
0.0000000000
0
SPLINE
5
2BD
100
AcDbEntity
8
0
100
AcDbSpline
62
7
6
CONTINUOUS
70
0
71
3
72
9
73
5
74
3
42
0.0000001000
43
0.0000001000
44
0.0000000001
40
0.0000000000
40
0.0000000000
40
0.0000000000
40
0.0000000000
40
0.4977977679
40
1.0000000000
40
1.0000000000
40
1.0000000000
40
1.0000000000
10
301.2983452949
20
168.1341132460
30
0.0000000000
10
301.3419609576
20
168.1767424178
30
0.0000000000
10
301.4293282923
20
168.2626334480
30
0.0000000000
10
301.5162031121
20
168.3490228544
30
0.0000000000
10
301.5597098435
20
168.3925295858
30
0.0000000000
11
301.2983452949
21
168.1341132460
31
0.0000000000
11
301.4288214396
21
168.2623786430
31
0.0000000000
11
301.5597098435
21
168.3925295858
31
0.0000000000
0
SPLINE
5
2BE
100
AcDbEntity
8
0
100
AcDbSpline
62
7
6
CONTINUOUS
70
0
71
3
72
10
73
6
74
4
42
0.0000001000
43
0.0000001000
44
0.0000000001
40
0.0000000000
40
0.0000000000
40
0.0000000000
40
0.0000000000
40
0.3319092216
40
0.6652356868
40
1.0000000000
40
1.0000000000
40
1.0000000000
40
1.0000000000
10
301.1682692308
20
173.8170953338
30
0.0000000000
10
301.2117595191
20
173.7928401385
30
0.0000000000
10
301.2988090634
20
173.7440164328
30
0.0000000000
10
301.4292856521
20
173.6699527146
30
0.0000000000
10
301.5162135989
20
173.6200468901
30
0.0000000000
10
301.5597098435
20
173.5949343216
30
0.0000000000
11
301.1682692308
21
173.8170953338
31
0.0000000000
11
301.2985609124
21
173.7440093927
31
0.0000000000
11
301.4290377423
21
173.6699535289
31
0.0000000000
11
301.5597098435
21
173.5949343216
31
0.0000000000
0
SPLINE
5
2BF
100
AcDbEntity
8
0
100
AcDbSpline
62
7
6
CONTINUOUS
70
0
71
3
72
14
73
10
74
8
42
0.0000001000
43
0.0000001000
44
0.0000000001
40
0.0000000000
40
0.0000000000
40
0.0000000000
40
0.0000000000
40
0.1870341675
40
0.3500570356
40
0.5113144814
40
0.6526879657
40
0.7820920636
40
0.9002453332
40
1.0000000000
40
1.0000000000
40
1.0000000000
40
1.0000000000
10
347.7595231102
20
244.8426123726
30
0.0000000000
10
347.8090901782
20
244.4602581725
30
0.0000000000
10
347.9046903923
20
243.7449974780
30
0.0000000000
10
348.0537390053
20
242.7015475341
30
0.0000000000
10
348.1991324117
20
241.7526989844
30
0.0000000000
10
348.3445103419
20
240.8740212308
30
0.0000000000
10
348.4860600209
20
240.0848409321
30
0.0000000000
10
348.6237013483
20
239.3822099541
30
0.0000000000
10
348.7182784418
20
238.9430456745
30
0.0000000000
10
348.7638752110
20
238.7425295858
30
0.0000000000
11
347.7595231102
21
244.8426123726
31
0.0000000000
11
347.9130867855
21
243.6961906114
31
0.0000000000
11
348.0559528963
21
242.6981948445
31
0.0000000000
11
348.2074255145
21
241.7125135583
31
0.0000000000
11
348.3505641046
21
240.8500253753
31
0.0000000000
11
348.4923435501
21
240.0624209504
31
0.0000000000
11
348.6334092301
21
239.3454811032
31
0.0000000000
11
348.7638752110
21
238.7425295858
31
0.0000000000
0
SPLINE
5
2C0
100
AcDbEntity
8
0
100
AcDbSpline
62
7
6
CONTINUOUS
70
0
71
3
72
10
73
6
74
4
42
0.0000001000
43
0.0000001000
44
0.0000000001
40
0.0000000000
40
0.0000000000
40
0.0000000000
40
0.0000000000
40
0.3319092216
40
0.6652356868
40
1.0000000000
40
1.0000000000
40
1.0000000000
40
1.0000000000
10
301.1682692308
20
179.8679638378
30
0.0000000000
10
301.2117595191
20
179.8922190331
30
0.0000000000
10
301.2988090634
20
179.9410427388
30
0.0000000000
10
301.4292856521
20
180.0151064570
30
0.0000000000
10
301.5162135989
20
180.0650122815
30
0.0000000000
10
301.5597098435
20
180.0901248500
30
0.0000000000
11
301.1682692308
21
179.8679638378
31
0.0000000000
11
301.2985609124
21
179.9410497789
31
0.0000000000
11
301.4290377423
21
180.0151056427
31
0.0000000000
11
301.5597098435
21
180.0901248500
31
0.0000000000
0
SPLINE
5
2C1
100
AcDbEntity
8
0
100
AcDbSpline
62
7
6
CONTINUOUS
70
0
71
3
72
10
73
6
74
4
42
0.0000001000
43
0.0000001000
44
0.0000000001
40
0.0000000000
40
0.0000000000
40
0.0000000000
40
0.0000000000
40
0.3442346535
40
0.6773518029
40
1.0000000000
40
1.0000000000
40
1.0000000000
40
1.0000000000
10
293.8385126001
20
192.0441892334
30
0.0000000000
10
293.9113859135
20
191.9637573338
30
0.0000000000
10
294.0540179812
20
191.8047989940
30
0.0000000000
10
294.2621906873
20
191.5679941935
30
0.0000000000
10
294.3972779604
20
191.4114625734
30
0.0000000000
10
294.4633013209
20
191.3340696863
30
0.0000000000
11
293.8385126001
21
192.0441892334
31
0.0000000000
11
294.0559390983
21
191.8018175963
31
0.0000000000
11
294.2640022772
21
191.5651942828
31
0.0000000000
11
294.4633013209
21
191.3340696863
31
0.0000000000
0
SPLINE
5
2C2
100
AcDbEntity
8
0
100
AcDbSpline
62
7
6
CONTINUOUS
70
0
71
3
72
9
73
5
74
3
42
0.0000001000
43
0.0000001000
44
0.0000000001
40
0.0000000000
40
0.0000000000
40
0.0000000000
40
0.0000000000
40
0.7855044496
40
1.0000000000
40
1.0000000000
40
1.0000000000
40
1.0000000000
10
293.8385126001
20
192.0441892334
30
0.0000000000
10
294.0497361215
20
191.9869595802
30
0.0000000000
10
294.3163331125
20
191.9054855642
30
0.0000000000
10
294.5793426402
20
191.8133146735
30
0.0000000000
10
294.6355837521
20
191.7930557109
30
0.0000000000
11
293.8385126001
21
192.0441892334
31
0.0000000000
11
294.4663488401
21
191.8523630199
31
0.0000000000
11
294.6355837521
21
191.7930557109
31
0.0000000000
0
SPLINE
5
2C3
100
AcDbEntity
8
0
100
AcDbSpline
62
7
6
CONTINUOUS
70
0
71
3
72
16
73
12
74
10
42
0.0000001000
43
0.0000001000
44
0.0000000001
40
0.0000000000
40
0.0000000000
40
0.0000000000
40
0.0000000000
40
0.0853763067
40
0.2275170546
40
0.3644312924
40
0.4970063076
40
0.6264961821
40
0.7525963849
40
0.8766605879
40
0.9589505884
40
1.0000000000
40
1.0000000000
40
1.0000000000
40
1.0000000000
10
294.6355837521
20
191.7930557109
30
0.0000000000
10
294.9799659535
20
191.6690036443
30
0.0000000000
10
295.8803887450
20
191.2895882581
30
0.0000000000
10
297.2273293186
20
190.4823623139
30
0.0000000000
10
298.5692858823
20
189.3246192736
30
0.0000000000
10
299.6676204895
20
188.0042979542
30
0.0000000000
10
300.5176073966
20
186.5661841578
30
0.0000000000
10
301.1204899295
20
185.0480940912
30
0.0000000000
10
301.4405083291
20
183.6538462453
30
0.0000000000
10
301.5465019747
20
182.5971094095
30
0.0000000000
10
301.5597154168
20
182.0684605614
30
0.0000000000
10
301.5597098435
20
181.8925295859
30
0.0000000000
11
294.6355837521
21
191.7930557109
31
0.0000000000
11
295.6473564564
21
191.3667133926
31
0.0000000000
11
297.2150865146
21
190.4275217522
31
0.0000000000
11
298.5481487845
21
189.2778669782
31
0.0000000000
11
299.6383471253
21
187.9675528280
31
0.0000000000
11
300.4855511211
21
186.5343573682
31
0.0000000000
11
301.0839715933
21
185.0275460135
31
0.0000000000
11
301.4408762936
21
183.4728724022
31
0.0000000000
11
301.5465306239
21
182.4201443344
31
0.0000000000
11
301.5597098435
21
181.8925295859
31
0.0000000000
0
SPLINE
5
2C4
100
AcDbEntity
8
0
100
AcDbSpline
62
7
6
CONTINUOUS
70
0
71
3
72
28
73
24
74
22
42
0.0000001000
43
0.0000001000
44
0.0000000001
40
0.0000000000
40
0.0000000000
40
0.0000000000
40
0.0000000000
40
0.1013873814
40
0.2037963076
40
0.2946576359
40
0.3749146981
40
0.4464337866
40
0.5105880747
40
0.5684192060
40
0.6207420598
40
0.6682084181
40
0.7113512166
40
0.7506139658
40
0.7863551822
40
0.8189133645
40
0.8486103268
40
0.8755812794
40
0.9000307578
40
0.9223355022
40
0.9428560108
40
0.9624730882
40
0.9815040127
40
1.0000000000
40
1.0000000000
40
1.0000000000
40
1.0000000000
10
320.2385558880
20
236.7425295858
30
0.0000000000
10
320.0875908785
20
236.7425295858
30
0.0000000000
10
319.7839296485
20
236.7594305925
30
0.0000000000
10
319.3499522287
20
236.8282686963
30
0.0000000000
10
318.9544390953
20
236.9272526221
30
0.0000000000
10
318.6109536602
20
237.0400766090
30
0.0000000000
10
318.3119390275
20
237.1586959520
30
0.0000000000
10
318.0498751773
20
237.2787132498
30
0.0000000000
10
317.8190270908
20
237.3975179545
30
0.0000000000
10
317.6149734328
20
237.5135964807
30
0.0000000000
10
317.4342730478
20
237.6261354156
30
0.0000000000
10
317.2742391811
20
237.7347817683
30
0.0000000000
10
317.1328031672
20
237.8394806971
30
0.0000000000
10
317.0083702461
20
237.9404063971
30
0.0000000000
10
316.8997324570
20
238.0379244196
30
0.0000000000
10
316.8061977107
20
238.1324051606
30
0.0000000000
10
316.7274918155
20
238.2241890779
30
0.0000000000
10
316.6635641157
20
238.3136457997
30
0.0000000000
10
316.6144877252
20
238.4012559960
30
0.0000000000
10
316.5802562683
20
238.4880599539
30
0.0000000000
10
316.5614054824
20
238.5745748329
30
0.0000000000
10
316.5584716823
20
238.6600730555
30
0.0000000000
10
316.5665565435
20
238.7156747557
30
0.0000000000
10
316.5726632475
20
238.7425295622
30
0.0000000000
11
320.2385558880
21
236.7425295858
31
0.0000000000
11
319.7863195380
21
236.7669466036
31
0.0000000000
11
319.3344014788
21
236.8379262728
31
0.0000000000
11
318.9405694367
21
236.9360647572
31
0.0000000000
11
318.5998935331
21
237.0477194160
31
0.0000000000
11
318.3028891673
21
237.1654143165
31
0.0000000000
11
318.0423217675
21
237.2847049396
31
0.0000000000
11
317.8126361907
21
237.4029380804
31
0.0000000000
11
317.6095188909
21
237.5185698816
31
0.0000000000
11
317.4296026366
21
237.6307631413
31
0.0000000000
11
317.2702513304
21
237.7391482602
31
0.0000000000
11
317.1294152328
21
237.8436727157
31
0.0000000000
11
317.0055905306
21
237.9444557263
31
0.0000000000
11
316.8975872972
21
238.0418575454
31
0.0000000000
11
316.8045542343
21
238.1364216211
31
0.0000000000
11
316.7265047279
21
238.2282005347
31
0.0000000000
11
316.6634638908
21
238.3173847351
31
0.0000000000
11
316.6152921069
21
238.4046003614
31
0.0000000000
11
316.5821699271
21
238.4900715539
31
0.0000000000
11
316.5638798693
21
238.5757705555
31
0.0000000000
11
316.5610189606
21
238.6607330904
31
0.0000000000
11
316.5726632475
21
238.7425295622
31
0.0000000000
0
SPLINE
5
2C5
100
AcDbEntity
8
0
100
AcDbSpline
62
7
6
CONTINUOUS
70
0
71
3
72
10
73
6
74
4
42
0.0000001000
43
0.0000001000
44
0.0000000001
40
0.0000000000
40
0.0000000000
40
0.0000000000
40
0.0000000000
40
0.3314207501
40
0.6647446697
40
1.0000000000
40
1.0000000000
40
1.0000000000
40
1.0000000000
10
322.6682692308
20
173.8762756235
30
0.0000000000
10
322.6142176274
20
173.8452711732
30
0.0000000000
10
322.5058332564
20
173.7830332650
30
0.0000000000
10
322.3428751390
20
173.6892525410
30
0.0000000000
10
322.2339832644
20
173.6264510700
30
0.0000000000
10
322.1793946548
20
173.5949343216
30
0.0000000000
11
322.6682692308
21
173.8762756235
31
0.0000000000
11
322.5061581855
21
173.7831860169
31
0.0000000000
11
322.3432044289
21
173.6894084105
31
0.0000000000
11
322.1793946548
21
173.5949343216
31
0.0000000000
0
SPLINE
5
2C6
100
AcDbEntity
8
0
100
AcDbSpline
62
7
6
CONTINUOUS
70
0
71
3
72
10
73
6
74
4
42
0.0000001000
43
0.0000001000
44
0.0000000001
40
0.0000000000
40
0.0000000000
40
0.0000000000
40
0.0000000000
40
0.3309395712
40
0.6642615835
40
1.0000000000
40
1.0000000000
40
1.0000000000
40
1.0000000000
10
322.6682692308
20
167.9052315262
30
0.0000000000
10
322.6142473876
20
167.9588939837
30
0.0000000000
10
322.5058899675
20
168.0666808973
30
0.0000000000
10
322.3429287597
20
168.2291107338
30
0.0000000000
10
322.2340178566
20
168.3379063840
30
0.0000000000
10
322.1793946548
20
168.3925295858
30
0.0000000000
11
322.6682692308
21
167.9052315262
31
0.0000000000
11
322.5063055455
21
168.0663213603
31
0.0000000000
11
322.3433523216
21
168.2287480894
31
0.0000000000
11
322.1793946548
21
168.3925295858
31
0.0000000000
0
SPLINE
5
2C7
100
AcDbEntity
8
0
100
AcDbSpline
62
7
6
CONTINUOUS
70
0
71
3
72
10
73
6
74
4
42
0.0000001000
43
0.0000001000
44
0.0000000001
40
0.0000000000
40
0.0000000000
40
0.0000000000
40
0.0000000000
40
0.3309395712
40
0.6642615835
40
1.0000000000
40
1.0000000000
40
1.0000000000
40
1.0000000000
10
342.6682692308
20
167.9052315262
30
0.0000000000
10
342.7222910739
20
167.9588939837
30
0.0000000000
10
342.8306484940
20
168.0666808973
30
0.0000000000
10
342.9936097019
20
168.2291107338
30
0.0000000000
10
343.1025206050
20
168.3379063840
30
0.0000000000
10
343.1571438067
20
168.3925295858
30
0.0000000000
11
342.6682692308
21
167.9052315262
31
0.0000000000
11
342.8302329160
21
168.0663213603
31
0.0000000000
11
342.9931861399
21
168.2287480894
31
0.0000000000
11
343.1571438067
21
168.3925295858
31
0.0000000000
0
SPLINE
5
2C8
100
AcDbEntity
8
0
100
AcDbSpline
62
7
6
CONTINUOUS
70
0
71
3
72
10
73
6
74
4
42
0.0000001000
43
0.0000001000
44
0.0000000001
40
0.0000000000
40
0.0000000000
40
0.0000000000
40
0.0000000000
40
0.3314207516
40
0.6647446705
40
1.0000000000
40
1.0000000000
40
1.0000000000
40
1.0000000000
10
342.6682692308
20
173.8762756333
30
0.0000000000
10
342.7223208349
20
173.8452711826
30
0.0000000000
10
342.8307052007
20
173.7830332630
30
0.0000000000
10
342.9936633221
20
173.6892525426
30
0.0000000000
10
343.1025551968
20
173.6264510702
30
0.0000000000
10
343.1571438067
20
173.5949343216
30
0.0000000000
11
342.6682692308
21
173.8762756333
31
0.0000000000
11
342.8303802740
21
173.7831860181
31
0.0000000000
11
342.9933340316
21
173.6894084110
31
0.0000000000
11
343.1571438067
21
173.5949343216
31
0.0000000000
0
SPLINE
5
2C9
100
AcDbEntity
8
0
100
AcDbSpline
62
7
6
CONTINUOUS
70
0
71
3
72
10
73
6
74
4
42
0.0000001000
43
0.0000001000
44
0.0000000001
40
0.0000000000
40
0.0000000000
40
0.0000000000
40
0.0000000000
40
0.3314207501
40
0.6647446697
40
1.0000000000
40
1.0000000000
40
1.0000000000
40
1.0000000000
10
322.6682692308
20
179.8087835481
30
0.0000000000
10
322.6142176274
20
179.8397879984
30
0.0000000000
10
322.5058332564
20
179.9020259066
30
0.0000000000
10
322.3428751390
20
179.9958066306
30
0.0000000000
10
322.2339832644
20
180.0586081015
30
0.0000000000
10
322.1793946548
20
180.0901248500
30
0.0000000000
11
322.6682692308
21
179.8087835481
31
0.0000000000
11
322.5061581855
21
179.9018731547
31
0.0000000000
11
322.3432044289
21
179.9956507611
31
0.0000000000
11
322.1793946548
21
180.0901248500
31
0.0000000000
0
SPLINE
5
2CA
100
AcDbEntity
8
0
100
AcDbSpline
62
7
6
CONTINUOUS
70
0
71
3
72
10
73
6
74
4
42
0.0000001000
43
0.0000001000
44
0.0000000001
40
0.0000000000
40
0.0000000000
40
0.0000000000
40
0.0000000000
40
0.3314207516
40
0.6647446705
40
1.0000000000
40
1.0000000000
40
1.0000000000
40
1.0000000000
10
342.6682692308
20
179.8087835383
30
0.0000000000
10
342.7223208349
20
179.8397879890
30
0.0000000000
10
342.8307052007
20
179.9020259086
30
0.0000000000
10
342.9936633221
20
179.9958066290
30
0.0000000000
10
343.1025551968
20
180.0586081014
30
0.0000000000
10
343.1571438067
20
180.0901248500
30
0.0000000000
11
342.6682692308
21
179.8087835383
31
0.0000000000
11
342.8303802740
21
179.9018731535
31
0.0000000000
11
342.9933340316
21
179.9956507606
31
0.0000000000
11
343.1571438067
21
180.0901248500
31
0.0000000000
0
SPLINE
5
2CB
100
AcDbEntity
8
0
100
AcDbSpline
62
7
6
CONTINUOUS
70
0
71
3
72
20
73
16
74
14
42
0.0000001000
43
0.0000001000
44
0.0000000001
40
0.0000000000
40
0.0000000000
40
0.0000000000
40
0.0000000000
40
0.0301791403
40
0.0906218326
40
0.1816441873
40
0.2731138016
40
0.3643584529
40
0.4549042540
40
0.5450963013
40
0.6356428423
40
0.7268874275
40
0.8183570820
40
0.9093791886
40
0.9698216583
40
1.0000000000
40
1.0000000000
40
1.0000000000
40
1.0000000000
10
322.1793946548
20
181.8925295858
30
0.0000000000
10
322.1793279950
20
182.2232709412
30
0.0000000000
10
322.2262558195
20
183.2166782943
30
0.0000000000
10
322.6009972191
20
185.1834418795
30
0.0000000000
10
323.7162657820
20
187.6428136194
30
0.0000000000
10
325.7056504337
20
189.9429093631
30
0.0000000000
10
328.2617893522
20
191.5812628040
30
0.0000000000
10
331.1618705319
20
192.4273597626
30
0.0000000000
10
334.1746943300
20
192.4273571997
30
0.0000000000
10
337.0747809804
20
191.5812494923
30
0.0000000000
10
339.6309199262
20
189.9428816617
30
0.0000000000
10
341.6202935955
20
187.6427803342
30
0.0000000000
10
342.7355512325
20
185.1834091614
30
0.0000000000
10
343.1102844154
20
183.2166583241
30
0.0000000000
10
343.1572104620
20
182.2232621807
30
0.0000000000
10
343.1571438067
20
181.8925295858
30
0.0000000000
11
322.1793946548
21
181.8925295858
31
0.0000000000
11
322.2261139567
21
182.8835732675
31
0.0000000000
11
322.5988791792
21
184.8353590849
31
0.0000000000
11
323.8357335558
21
187.5601526741
31
0.0000000000
11
325.8028386595
21
189.8345802414
31
0.0000000000
11
328.3282535092
21
191.4533386825
31
0.0000000000
11
331.1857389072
21
192.2873469159
31
0.0000000000
11
334.1508175353
21
192.2873443515
31
0.0000000000
11
337.0083238631
21
191.4533210078
31
0.0000000000
11
339.5337304488
21
189.8345537016
31
0.0000000000
11
341.5008274713
21
187.5601174001
31
0.0000000000
11
342.7376686820
21
184.8353267925
31
0.0000000000
11
343.1104269774
21
182.8835471014
31
0.0000000000
11
343.1571438067
21
181.8925295858
31
0.0000000000
0
SPLINE
5
2CC
100
AcDbEntity
8
0
100
AcDbSpline
62
7
6
CONTINUOUS
70
0
71
3
72
28
73
24
74
22
42
0.0000001000
43
0.0000001000
44
0.0000000001
40
0.0000000000
40
0.0000000000
40
0.0000000000
40
0.0000000000
40
0.0184959934
40
0.0375269178
40
0.0571439951
40
0.0776645036
40
0.0999692478
40
0.1244187261
40
0.1513896785
40
0.1810866406
40
0.2136448227
40
0.2493860389
40
0.2886487878
40
0.3317915861
40
0.3792579441
40
0.4315807976
40
0.4894119285
40
0.5535662162
40
0.6250853043
40
0.7053423659
40
0.7962036937
40
0.8986126192
40
1.0000000000
40
1.0000000000
40
1.0000000000
40
1.0000000000
10
348.7638752101
20
238.7425295899
30
0.0000000000
10
348.7699819162
20
238.7156747743
30
0.0000000000
10
348.7780667791
20
238.6600730649
30
0.0000000000
10
348.7751329793
20
238.5745748329
30
0.0000000000
10
348.7562821932
20
238.4880599539
30
0.0000000000
10
348.7220507363
20
238.4012559960
30
0.0000000000
10
348.6729743458
20
238.3136457997
30
0.0000000000
10
348.6090466461
20
238.2241890779
30
0.0000000000
10
348.5303407508
20
238.1324051606
30
0.0000000000
10
348.4368060046
20
238.0379244196
30
0.0000000000
10
348.3281682154
20
237.9404063971
30
0.0000000000
10
348.2037352943
20
237.8394806971
30
0.0000000000
10
348.0622992804
20
237.7347817683
30
0.0000000000
10
347.9022654137
20
237.6261354156
30
0.0000000000
10
347.7215650287
20
237.5135964807
30
0.0000000000
10
347.5175113708
20
237.3975179545
30
0.0000000000
10
347.2866632843
20
237.2787132498
30
0.0000000000
10
347.0245994340
20
237.1586959520
30
0.0000000000
10
346.7255848014
20
237.0400766090
30
0.0000000000
10
346.3820993662
20
236.9272526221
30
0.0000000000
10
345.9865862328
20
236.8282686963
30
0.0000000000
10
345.5526088130
20
236.7594305925
30
0.0000000000
10
345.2489475831
20
236.7425295858
30
0.0000000000
10
345.0979825735
20
236.7425295858
30
0.0000000000
11
348.7638752101
21
238.7425295899
31
0.0000000000
11
348.7755195010
21
238.6607330904
31
0.0000000000
11
348.7726585922
21
238.5757705555
31
0.0000000000
11
348.7543685344
21
238.4900715539
31
0.0000000000
11
348.7212463546
21
238.4046003614
31
0.0000000000
11
348.6730745707
21
238.3173847351
31
0.0000000000
11
348.6100337337
21
238.2282005347
31
0.0000000000
11
348.5319842272
21
238.1364216211
31
0.0000000000
11
348.4389511644
21
238.0418575454
31
0.0000000000
11
348.3309479310
21
237.9444557263
31
0.0000000000
11
348.2071232288
21
237.8436727157
31
0.0000000000
11
348.0662871312
21
237.7391482602
31
0.0000000000
11
347.9069358249
21
237.6307631413
31
0.0000000000
11
347.7270195707
21
237.5185698816
31
0.0000000000
11
347.5239022709
21
237.4029380804
31
0.0000000000
11
347.2942166941
21
237.2847049396
31
0.0000000000
11
347.0336492942
21
237.1654143165
31
0.0000000000
11
346.7366449284
21
237.0477194160
31
0.0000000000
11
346.3959690249
21
236.9360647572
31
0.0000000000
11
346.0021369827
21
236.8379262728
31
0.0000000000
11
345.5502189235
21
236.7669466036
31
0.0000000000
11
345.0979825735
21
236.7425295858
31
0.0000000000
0
SPLINE
5
2CD
100
AcDbEntity
8
0
100
AcDbSpline
62
7
6
CONTINUOUS
70
0
71
3
72
10
73
6
74
4
42
0.0000001000
43
0.0000001000
44
0.0000000001
40
0.0000000000
40
0.0000000000
40
0.0000000000
40
0.0000000000
40
0.3357116992
40
0.6690333620
40
1.0000000000
40
1.0000000000
40
1.0000000000
40
1.0000000000
10
293.8385126001
20
168.3925295858
30
0.0000000000
10
293.9107108777
20
168.3364607548
30
0.0000000000
10
294.0546533628
20
168.2247994102
30
0.0000000000
10
294.2699837848
20
168.0581328432
30
0.0000000000
10
294.4131456632
20
167.9475739019
30
0.0000000000
10
294.4845030467
20
167.8925295858
30
0.0000000000
11
293.8385126001
21
168.3925295858
31
0.0000000000
11
294.0551979828
21
168.2244397559
31
0.0000000000
11
294.2705212066
21
168.0577795432
31
0.0000000000
11
294.4845030467
21
167.8925295858
31
0.0000000000
0
SPLINE
5
2CE
100
AcDbEntity
8
0
100
AcDbSpline
62
7
6
CONTINUOUS
70
0
71
3
72
10
73
6
74
4
42
0.0000001000
43
0.0000001000
44
0.0000000001
40
0.0000000000
40
0.0000000000
40
0.0000000000
40
0.0000000000
40
0.3426057135
40
0.6757061051
40
1.0000000000
40
1.0000000000
40
1.0000000000
40
1.0000000000
10
293.8385126001
20
180.0901248500
30
0.0000000000
10
294.1930777571
20
179.9311493893
30
0.0000000000
10
294.8930080621
20
179.6190274260
30
0.0000000000
10
295.9308017292
20
179.1614928541
30
0.0000000000
10
296.6143423968
20
178.8636786501
30
0.0000000000
10
296.9518643207
20
178.7175295858
30
0.0000000000
11
293.8385126001
21
180.0901248500
31
0.0000000000
11
294.9031917562
21
179.6153984831
31
0.0000000000
11
295.9402750885
21
179.1582251819
31
0.0000000000
11
296.9518643207
21
178.7175295858
31
0.0000000000
0
SPLINE
5
2CF
100
AcDbEntity
8
0
100
AcDbSpline
62
7
6
CONTINUOUS
70
0
71
3
72
10
73
6
74
4
42
0.0000001000
43
0.0000001000
44
0.0000000001
40
0.0000000000
40
0.0000000000
40
0.0000000000
40
0.0000000000
40
0.3426057135
40
0.6757061051
40
1.0000000000
40
1.0000000000
40
1.0000000000
40
1.0000000000
10
293.8385126001
20
173.5949343216
30
0.0000000000
10
294.1930777571
20
173.7539097823
30
0.0000000000
10
294.8930080621
20
174.0660317456
30
0.0000000000
10
295.9308017292
20
174.5235663175
30
0.0000000000
10
296.6143423968
20
174.8213805215
30
0.0000000000
10
296.9518643207
20
174.9675295858
30
0.0000000000
11
293.8385126001
21
173.5949343216
31
0.0000000000
11
294.9031917562
21
174.0696606885
31
0.0000000000
11
295.9402750885
21
174.5268339897
31
0.0000000000
11
296.9518643207
21
174.9675295858
31
0.0000000000
0
SPLINE
5
2D0
100
AcDbEntity
8
0
100
AcDbSpline
62
7
6
CONTINUOUS
70
0
71
3
72
16
73
12
74
10
42
0.0000001000
43
0.0000001000
44
0.0000000001
40
0.0000000000
40
0.0000000000
40
0.0000000000
40
0.0000000000
40
0.0476467614
40
0.1430441971
40
0.2860881169
40
0.4292404924
40
0.5721550341
40
0.7147292394
40
0.8572128369
40
0.9523815582
40
1.0000000000
40
1.0000000000
40
1.0000000000
40
1.0000000000
10
332.6682692308
20
218.3419031581
30
0.0000000000
10
332.8297294906
20
218.3419199494
30
0.0000000000
10
333.3145398752
20
218.3237981453
30
0.0000000000
10
334.2766887415
20
218.1791871956
30
0.0000000000
10
335.5080951708
20
217.7486757736
30
0.0000000000
10
336.7493510178
20
216.9682550257
30
0.0000000000
10
337.7845149172
20
215.9319222319
30
0.0000000000
10
338.5623464870
20
214.6938382723
30
0.0000000000
10
338.9930154630
20
213.4676499777
30
0.0000000000
10
339.1400998802
20
212.5087415797
30
0.0000000000
10
339.1600128074
20
212.0248790188
30
0.0000000000
10
339.1606376052
20
211.8635157376
30
0.0000000000
11
332.6682692308
21
218.3419031581
31
0.0000000000
11
333.1522871723
21
218.3238358510
31
0.0000000000
11
334.1112528468
21
218.1795039796
31
0.0000000000
11
335.4838382946
21
217.6994309642
31
0.0000000000
11
336.7158233931
21
216.9249109794
31
0.0000000000
11
337.7425895795
21
215.8971031513
31
0.0000000000
11
338.5136770487
21
214.6699025641
31
0.0000000000
11
338.9938939366
21
213.3034034456
31
0.0000000000
11
339.1407579822
21
212.3471745048
31
0.0000000000
11
339.1606376052
21
211.8635157376
31
0.0000000000
0
SPLINE
5
2D1
100
AcDbEntity
8
0
100
AcDbSpline
62
7
6
CONTINUOUS
70
0
71
3
72
16
73
12
74
10
42
0.0000001000
43
0.0000001000
44
0.0000000001
40
0.0000000000
40
0.0000000000
40
0.0000000000
40
0.0000000000
40
0.0476067593
40
0.1427775455
40
0.2853006967
40
0.4279267078
40
0.5708422516
40
0.7139677830
40
0.8569871888
40
0.9523617122
40
1.0000000000
40
1.0000000000
40
1.0000000000
40
1.0000000000
10
326.1759008563
20
211.8635157376
30
0.0000000000
10
326.1765255175
20
212.0248393942
30
0.0000000000
10
326.1964326551
20
212.5086692300
30
0.0000000000
10
326.3435164636
20
213.4676805537
30
0.0000000000
10
326.7743124751
20
214.6941690903
30
0.0000000000
10
327.5524258091
20
215.9324596652
30
0.0000000000
10
328.5877867837
20
216.9687204068
30
0.0000000000
10
329.8289778959
20
217.7489111241
30
0.0000000000
10
331.0601703997
20
218.1792529530
30
0.0000000000
10
332.0221338261
20
218.3238053522
30
0.0000000000
10
332.5068377021
20
218.3419199303
30
0.0000000000
10
332.6682692308
20
218.3419031581
30
0.0000000000
11
326.1759008563
21
211.8635157376
31
0.0000000000
11
326.1957711914
21
212.3470559396
31
0.0000000000
11
326.3426224953
21
213.3033078996
31
0.0000000000
11
326.8229944579
21
214.6701784356
31
0.0000000000
11
327.5944698296
21
215.8977569398
31
0.0000000000
11
328.6213762348
21
216.9254387047
31
0.0000000000
11
329.8532146971
21
217.6996787134
31
0.0000000000
11
331.2255976381
21
218.1795751105
31
0.0000000000
11
332.1843373343
21
218.3238422832
31
0.0000000000
11
332.6682692308
21
218.3419031581
31
0.0000000000
0
SPLINE
5
2D2
100
AcDbEntity
8
0
100
AcDbSpline
62
7
6
CONTINUOUS
70
0
71
3
72
16
73
12
74
10
42
0.0000001000
43
0.0000001000
44
0.0000000001
40
0.0000000000
40
0.0000000000
40
0.0000000000
40
0.0000000000
40
0.0471902315
40
0.1417130241
40
0.2837487452
40
0.4266648871
40
0.5702507482
40
0.7139141771
40
0.8572044518
40
0.9525041049
40
1.0000000000
40
1.0000000000
40
1.0000000000
40
1.0000000000
10
332.6682692308
20
205.3431560135
30
0.0000000000
10
332.5076590709
20
205.3431560456
30
0.0000000000
10
332.0252266385
20
205.3610103182
30
0.0000000000
10
331.0666343925
20
205.5039665938
30
0.0000000000
10
329.8357844660
20
205.9311319746
30
0.0000000000
10
328.5887468247
20
206.7109454779
30
0.0000000000
10
327.5442533926
20
207.7548934504
30
0.0000000000
10
326.7608399740
20
209.0079360597
30
0.0000000000
10
326.3325119516
20
210.2487004693
30
0.0000000000
10
326.1914399894
20
211.2156798179
30
0.0000000000
10
326.1752206618
20
211.7018666944
30
0.0000000000
10
326.1759008563
20
211.8635157376
30
0.0000000000
11
332.6682692308
21
205.3431560135
31
0.0000000000
11
332.1867686930
21
205.3609841703
31
0.0000000000
11
331.2322373518
21
205.5035160496
31
0.0000000000
11
329.8622570789
21
205.9792773070
31
0.0000000000
11
328.6250482083
21
206.7530107329
31
0.0000000000
11
327.5881167926
21
207.7894111797
31
0.0000000000
11
326.8104419682
21
209.0331544735
31
0.0000000000
11
326.3327304083
21
210.4160153094
31
0.0000000000
11
326.1920059283
21
211.3788318106
31
0.0000000000
11
326.1759008563
21
211.8635157376
31
0.0000000000
0
SPLINE
5
2D3
100
AcDbEntity
8
0
100
AcDbSpline
62
7
6
CONTINUOUS
70
0
71
3
72
16
73
12
74
10
42
0.0000001000
43
0.0000001000
44
0.0000000001
40
0.0000000000
40
0.0000000000
40
0.0000000000
40
0.0000000000
40
0.0474562243
40
0.1427137714
40
0.2859948813
40
0.4296811268
40
0.5732895243
40
0.7162252666
40
0.8582820037
40
0.9528064306
40
1.0000000000
40
1.0000000000
40
1.0000000000
40
1.0000000000
10
339.1606376052
20
211.8635157376
30
0.0000000000
10
339.1613227998
20
211.7020017915
30
0.0000000000
10
339.1451170271
20
211.2160937605
30
0.0000000000
10
339.0041905846
20
210.2494120576
30
0.0000000000
10
338.5760604357
20
209.0086835332
30
0.0000000000
10
337.7927379405
20
207.7554337852
30
0.0000000000
10
336.7481778907
20
206.7112318518
30
0.0000000000
10
335.5009982821
20
205.9312314576
30
0.0000000000
10
334.2700186647
20
205.5039876258
30
0.0000000000
10
333.3113399235
20
205.3610122665
30
0.0000000000
10
332.8288906948
20
205.3431559814
30
0.0000000000
10
332.6682692308
20
205.3431560135
30
0.0000000000
11
339.1606376052
21
211.8635157376
31
0.0000000000
11
339.1445610475
21
211.3792363112
31
0.0000000000
11
339.0039905663
21
210.4168321365
31
0.0000000000
11
338.5264978595
21
209.0339952572
31
0.0000000000
11
337.7488561252
21
207.7899571336
31
0.0000000000
11
336.7118555166
21
206.7533011492
31
0.0000000000
11
335.4745211200
21
205.9793919758
31
0.0000000000
11
334.1043501984
21
205.5035271535
31
0.0000000000
11
333.1498036115
21
205.3609866800
31
0.0000000000
11
332.6682692308
21
205.3431560135
31
0.0000000000
0
ENDSEC
0
SECTION
2
OBJECTS
0
DICTIONARY
5
2D4
100
AcDbDictionary
3
ACAD_GROUP
350
2D5
3
ACAD_MLINESTYLE
350
2D6
0
DICTIONARY
5
2D5
102
{ACAD_REACTORS
330
2D4
102
}
100
AcDbDictionary
0
DICTIONARY
5
2D6
102
{ACAD_REACTORS
330
2D4
102
}
100
AcDbDictionary
3
STANDARD
350
2D7
0
MLINESTYLE
5
2D7
102
{ACAD_REACTORS
330
2D6
102
}
100
AcDbMlineStyle
2
STANDARD
70
0
3

62
256
51
90.0
52
90.0
71
2
49
0.5
62
256
6
BYLAYER
49
-0.5
62
256
6
BYLAYER
0
ENDSEC
0
EOF
