  0
SECTION
  2
HEADER
  9
$ACADVER
  1
AC1009
  9
$INSBASE
 10
0.0
 20
0.0
 30
0.0
  9
$EXTMIN
 10
0.0
 20
-0.5
 30
0.0
  9
$EXTMAX
 10
349.80000000000001
 20
242.0
 30
0.0
  9
$LIMMIN
 10
0.0
 20
0.0
  9
$LIMMAX
 10
500.0
 20
500.0
  9
$ORTHOMODE
 70
     0
  9
$REGENMODE
 70
     1
  9
$FILLMODE
 70
     1
  9
$QTEXTMODE
 70
     0
  9
$MIRRTEXT
 70
     1
  9
$DRAGMODE
 70
     2
  9
$LTSCALE
 40
7.0
  9
$OSMODE
 70
   951
  9
$ATTMODE
 70
     1
  9
$TEXTSIZE
 40
3.0
  9
$TRACEWID
 40
1.0
  9
$TEXTSTYLE
  7
STANDARD
  9
$CLAYER
  8
0
  9
$CELTYPE
  6
CONTINUOUS
  9
$CECOLOR
 62
   256
  9
$DIMSCALE
 40
1.0
  9
$DIMASZ
 40
2.5
  9
$DIMEXO
 40
0.6
  9
$DIMDLI
 40
1.0
  9
$DIMRND
 40
0.0
  9
$DIMDLE
 40
0.0
  9
$DIMEXE
 40
1.0
  9
$DIMTP
 40
0.1
  9
$DIMTM
 40
0.1
  9
$DIMTXT
 40
3.0
  9
$DIMCEN
 40
-1.0
  9
$DIMTSZ
 40
0.0
  9
$DIMTOL
 70
     0
  9
$DIMLIM
 70
     0
  9
$DIMTIH
 70
     0
  9
$DIMTOH
 70
     0
  9
$DIMSE1
 70
     0
  9
$DIMSE2
 70
     0
  9
$DIMTAD
 70
     1
  9
$DIMZIN
 70
     8
  9
$DIMBLK
  1

  9
$DIMASO
 70
     1
  9
$DIMSHO
 70
     1
  9
$DIMPOST
  1

  9
$DIMAPOST
  1

  9
$DIMALT
 70
     0
  9
$DIMALTD
 70
     2
  9
$DIMALTF
 40
0.0394
  9
$DIMLFAC
 40
1.0
  9
$DIMTOFL
 70
     1
  9
$DIMTVP
 40
1.0
  9
$DIMTIX
 70
     0
  9
$DIMSOXD
 70
     0
  9
$DIMSAH
 70
     0
  9
$DIMBLK1
  1

  9
$DIMBLK2
  1

  9
$DIMSTYLE
  2
ISO-25
  9
$DIMCLRD
 70
     2
  9
$DIMCLRE
 70
     2
  9
$DIMCLRT
 70
     3
  9
$DIMTFAC
 40
0.7
  9
$DIMGAP
 40
0.6
  9
$LUNITS
 70
     2
  9
$LUPREC
 70
     4
  9
$SKETCHINC
 40
1.0
  9
$FILLETRAD
 40
0.0
  9
$AUNITS
 70
     0
  9
$AUPREC
 70
     0
  9
$MENU
  1
acad
  9
$ELEVATION
 40
0.0
  9
$PELEVATION
 40
0.0
  9
$THICKNESS
 40
0.0
  9
$LIMCHECK
 70
     0
  9
$BLIPMODE
 70
     0
  9
$CHAMFERA
 40
0.2
  9
$CHAMFERB
 40
0.2
  9
$SKPOLY
 70
     0
  9
$TDCREATE
 40
2450166.8692156249
  9
$TDUPDATE
 40
2457465.6750473152
  9
$TDINDWG
 40
5.0135480787000004
  9
$TDUSRTIMER
 40
5.0135480787000004
  9
$USRTIMER
 70
     1
  9
$ANGBASE
 50
0.0
  9
$ANGDIR
 70
     0
  9
$PDMODE
 70
     0
  9
$PDSIZE
 40
0.0
  9
$PLINEWID
 40
1.0
  9
$COORDS
 70
     0
  9
$SPLFRAME
 70
     0
  9
$SPLINETYPE
 70
     6
  9
$SPLINESEGS
 70
     8
  9
$ATTDIA
 70
     0
  9
$ATTREQ
 70
     1
  9
$HANDLING
 70
     1
  9
$HANDSEED
  5
1C5A3
  9
$SURFTAB1
 70
     6
  9
$SURFTAB2
 70
     6
  9
$SURFTYPE
 70
     6
  9
$SURFU
 70
     6
  9
$SURFV
 70
     6
  9
$UCSNAME
  2

  9
$UCSORG
 10
0.0
 20
0.0
 30
0.0
  9
$UCSXDIR
 10
1.0
 20
0.0
 30
0.0
  9
$UCSYDIR
 10
0.0
 20
1.0
 30
0.0
  9
$PUCSNAME
  2

  9
$PUCSORG
 10
0.0
 20
0.0
 30
0.0
  9
$PUCSXDIR
 10
1.0
 20
0.0
 30
0.0
  9
$PUCSYDIR
 10
0.0
 20
1.0
 30
0.0
  9
$USERI1
 70
     0
  9
$USERI2
 70
     0
  9
$USERI3
 70
     0
  9
$USERI4
 70
     0
  9
$USERI5
 70
     0
  9
$USERR1
 40
0.0
  9
$USERR2
 40
0.0
  9
$USERR3
 40
0.0
  9
$USERR4
 40
0.0
  9
$USERR5
 40
0.0
  9
$WORLDVIEW
 70
     1
  9
$SHADEDGE
 70
     3
  9
$SHADEDIF
 70
    70
  9
$TILEMODE
 70
     1
  9
$MAXACTVP
 70
    16
  9
$PLIMCHECK
 70
     0
  9
$PEXTMIN
 10
1.0000000000000000E+020
 20
1.0000000000000000E+020
 30
1.0000000000000000E+020
  9
$PEXTMAX
 10
-1.0000000000000000E+020
 20
-1.0000000000000000E+020
 30
-1.0000000000000000E+020
  9
$PLIMMIN
 10
0.0
 20
0.0
  9
$PLIMMAX
 10
420.0
 20
297.0
  9
$UNITMODE
 70
     0
  9
$VISRETAIN
 70
     0
  9
$PLINEGEN
 70
     0
  9
$PSLTSCALE
 70
     1
  0
ENDSEC
  0
SECTION
  2
TABLES
  0
TABLE
  2
VPORT
 70
     1
  0
VPORT
  2
*ACTIVE
 70
     0
 10
0.0
 20
0.0
 11
1.0
 21
1.0
 12
174.90885798421399
 22
120.74331077161661
 13
0.0
 23
0.0
 14
1.0
 24
1.0
 15
2.0
 25
2.0
 16
0.0
 26
0.0
 36
1.0
 17
0.0
 27
0.0
 37
0.0
 40
244.31285213154931
 41
2.1307870370370372
 42
50.0
 43
0.0
 44
0.0
 50
0.0
 51
0.0
 71
     0
 72
   100
 73
     1
 74
     1
 75
     0
 76
     0
 77
     0
 78
     1
  0
ENDTAB
  0
TABLE
  2
LTYPE
 70
     7
  0
LTYPE
  2
CONTINUOUS
 70
     0
  3
Solid line
 72
    65
 73
     0
 40
0.0
  0
LTYPE
  2
CENTER
 70
     0
  3
____ _ ____ _ ____ _ ____ _ ____ _ ____ _ ____ 
 72
    65
 73
     4
 40
2.0
 49
1.25
 49
-0.25
 49
0.25
 49
-0.25
  0
LTYPE
  2
HIDDEN
 70
     0
  3
Hidden __ __ __ __ __ __ __ __ __ __ __ __ __ _
 72
    65
 73
     2
 40
0.375
 49
0.25
 49
-0.125
  0
LTYPE
  2
HIDDEN2
 70
     0
  3
_ _ _ _ _ _ _ _ _ _ _ _ _ _ _ _ _ _ _ _ _ _ _ _
 72
    65
 73
     2
 40
0.1875
 49
0.125
 49
-0.0625
  0
LTYPE
  2
PHANTOM2
 70
     0
  3
___ _ _ ___ _ _ ___ _ _ ___ _ _ ___ _ _ ___ _ _
 72
    65
 73
     6
 40
1.25
 49
0.625
 49
-0.125
 49
0.125
 49
-0.125
 49
0.125
 49
-0.125
  0
LTYPE
  2
PHANTOM
 70
     0
  3
______  __  __  ______  __  __  ______  __  __ 
 72
    65
 73
     6
 40
2.5
 49
1.25
 49
-0.25
 49
0.25
 49
-0.25
 49
0.25
 49
-0.25
  0
LTYPE
  2
CENTER2
 70
     0
  3
___ _ ___ _ ___ _ ___ _ ___ _ ___ _ ___ _ ___ _
 72
    65
 73
     4
 40
1.125
 49
0.75
 49
-0.125
 49
0.125
 49
-0.125
  0
ENDTAB
  0
TABLE
  2
LAYER
 70
     3
  0
LAYER
  2
0
 70
     0
 62
     7
  6
CONTINUOUS
  0
LAYER
  2
DEFPOINTS
 70
     0
 62
     7
  6
CONTINUOUS
  0
LAYER
  2
CT
 70
     0
 62
     2
  6
CENTER
  0
ENDTAB
  0
TABLE
  2
STYLE
 70
     1
  0
STYLE
  2
STANDARD
 70
     0
 40
3.0
 41
1.0
 50
0.0
 71
     0
 42
3.0
  3
ISOCP
  4
WHGTXT.SHX
  0
ENDTAB
  0
TABLE
  2
VIEW
 70
     0
  0
ENDTAB
  0
TABLE
  2
UCS
 70
     0
  0
ENDTAB
  0
TABLE
  2
APPID
 70
    10
  0
APPID
  2
ACAD
 70
     0
  0
APPID
  2
ACAD_MLEADERVER
 70
     0
  0
APPID
  2
ACAD_EXEMPT_FROM_CAD_STANDARDS
 70
     0
  0
APPID
  2
ACAD_DSTYLE_DIMRADIAL_EXTENSION
 70
     0
  0
APPID
  2
ACAD_DSTYLE_DIMJAG
 70
     0
  0
APPID
  2
ACAD_DSTYLE_DIMTALN
 70
     0
  0
APPID
  2
ACAD_DSTYLE_DIMBREAK
 70
     0
  0
APPID
  2
GENIUS_GENODEF_13
 70
     0
  0
APPID
  2
GENIUS_GENOBJ-N-FIL_13
 70
     0
  0
APPID
  2
CONTENTBLOCKICON
 70
     0
  0
ENDTAB
  0
TABLE
  2
DIMSTYLE
 70
     4
  0
DIMSTYLE
  2
ISO-25
 70
     0
  3

  4

  5

  6

  7

 40
1.0
 41
2.5
 42
0.625
 43
3.75
 44
1.25
 45
0.0
 46
0.0
 47
0.0
 48
0.0
140
2.5
141
2.5
142
0.0
143
0.0394
144
1.0
145
1.0
146
1.0
147
0.625
 71
     0
 72
     0
 73
     1
 74
     0
 75
     0
 76
     0
 77
     1
 78
     8
170
     0
171
     2
172
     1
173
     0
174
     0
175
     0
176
     2
177
     2
178
     0
  0
DIMSTYLE
  2
KSM
 70
     0
  3

  4

  5

  6

  7

 40
1.0
 41
2.0
 42
0.0
 43
0.1
 44
1.1999999999999991
 45
0.0
 46
0.0
 47
0.25
 48
0.25
140
3.0
141
0.0
142
0.0
143
0.0394
144
1.0
145
1.0
146
1.0
147
1.0
 71
     1
 72
     0
 73
     0
 74
     0
 75
     0
 76
     0
 77
     1
 78
     8
170
     0
171
     2
172
     1
173
     0
174
     0
175
     0
176
     2
177
     2
178
     3
  0
DIMSTYLE
  2
ISO-25$2
 70
     0
  3

  4

  5

  6

  7

 40
1.0
 41
2.5
 42
0.625
 43
3.75
 44
1.25
 45
0.0
 46
0.0
 47
0.0
 48
0.0
140
2.5
141
2.5
142
0.0
143
0.0394
144
1.0
145
1.0
146
1.0
147
0.625
 71
     0
 72
     0
 73
     1
 74
     0
 75
     0
 76
     0
 77
     1
 78
     8
170
     0
171
     2
172
     1
173
     0
174
     0
175
     0
176
     2
177
     2
178
     0
  0
DIMSTYLE
  2
ISO-25$0
 70
     0
  3

  4

  5

  6

  7

 40
1.0
 41
2.5
 42
0.625
 43
3.75
 44
1.25
 45
0.0
 46
0.0
 47
0.0
 48
0.0
140
3.0
141
2.5
142
0.0
143
0.0394
144
1.0
145
1.0
146
1.0
147
0.625
 71
     0
 72
     0
 73
     0
 74
     0
 75
     0
 76
     0
 77
     1
 78
     8
170
     0
171
     2
172
     1
173
     0
174
     0
175
     0
176
     2
177
     2
178
     3
  0
ENDTAB
  0
ENDSEC
  0
SECTION
  2
BLOCKS
  0
BLOCK
  8
0
  2
$MODEL_SPACE
 70
     0
 10
0.0
 20
0.0
 30
0.0
  3
$MODEL_SPACE
  1

  0
ENDBLK
  5
9
  8
0
  0
BLOCK
 67
     1
  8
0
  2
$PAPER_SPACE
 70
     0
 10
0.0
 20
0.0
 30
0.0
  3
$PAPER_SPACE
  1

  0
ENDBLK
  5
E
 67
     1
  8
0
  0
BLOCK
  8
0
  2
DFG
 70
     0
 10
0.0
 20
0.0
 30
0.0
  3
DFG
  1

  0
LINE
  5
85D
  8
0
  6
CONTINUOUS
 62
     4
 10
86.283570637268895
 20
194.3173600391579
 30
0.0
 11
87.100067218196514
 21
195.13385662008551
 31
0.0
  0
LINE
  5
85E
  8
0
  6
CONTINUOUS
 62
     4
 10
85.827275012060909
 20
196.40664882622119
 30
0.0
 11
85.010778431133076
 21
195.5901522452935
 31
0.0
  0
LINE
  5
85F
  8
0
  6
CONTINUOUS
 62
     4
 10
85.364331821726182
 20
196.65081241707321
 30
0.0
 11
84.657225040539743
 21
195.94370563588669
 31
0.0
  0
LINE
  5
860
  8
0
  6
CONTINUOUS
 62
     4
 10
85.364331821726182
 20
196.65081241707321
 30
0.0
 11
84.248976750075826
 21
196.35195392635069
 31
0.0
  0
LINE
  5
861
  8
0
  6
CONTINUOUS
 10
87.953595175868358
 20
196.1995166121132
 30
0.0
 11
84.418061269935833
 21
192.6639827061806
 31
0.0
  0
LINE
  5
862
  8
0
  6
CONTINUOUS
 10
84.913036016766455
 20
199.24007577121549
 30
0.0
 11
81.377502110833461
 21
195.70454186528281
 31
0.0
  0
LINE
  5
863
  8
0
  6
CONTINUOUS
 10
84.418061269935606
 20
199.24007577121529
 30
0.0
 11
81.377502110833802
 21
196.1995166121134
 31
0.0
  0
LINE
  5
864
  8
0
  6
CONTINUOUS
 10
87.953595175868585
 20
195.70454186528261
 30
0.0
 11
84.913036016766227
 21
192.66398270618041
 31
0.0
  0
LINE
  5
865
  8
0
  6
CONTINUOUS
 10
84.418061269935606
 20
199.24007577121529
 30
0.0
 11
84.913036016766455
 21
199.24007577121549
 31
0.0
  0
LINE
  5
866
  8
0
  6
CONTINUOUS
 62
     4
 10
85.717885212319516
 20
196.29725902647991
 30
0.0
 11
85.364331821726182
 21
196.65081241707321
 31
0.0
  0
LINE
  5
867
  8
0
  6
CONTINUOUS
 62
     4
 10
87.100067218196514
 20
195.13385662008551
 30
0.0
 11
85.827275012060909
 21
196.40664882622119
 31
0.0
  0
LINE
  5
868
  8
0
  6
CONTINUOUS
 62
     4
 10
86.691818927732811
 20
194.72560832962171
 30
0.0
 11
85.419026721596978
 21
195.9984005357575
 31
0.0
  0
LINE
  5
869
  8
0
  6
CONTINUOUS
 10
87.953595175868585
 20
195.70454186528261
 30
0.0
 11
87.953595175868358
 21
196.1995166121132
 31
0.0
  0
LINE
  5
86A
  8
0
  6
CONTINUOUS
 62
     4
 10
87.100067218196514
 20
195.13385662008551
 30
0.0
 11
87.382909930671289
 21
195.1338566200854
 31
0.0
  0
LINE
  5
86B
  8
0
  6
CONTINUOUS
 10
81.377502110833802
 20
196.1995166121134
 30
0.0
 11
81.377502110833802
 21
195.70454186528269
 31
0.0
  0
LINE
  5
86C
  8
0
  6
CONTINUOUS
 62
     4
 10
85.467074056341076
 20
193.5008634582301
 30
0.0
 11
85.467074056341175
 21
193.21802074575541
 31
0.0
  0
LINE
  5
86D
  8
0
  6
CONTINUOUS
 62
     4
 10
86.283570637268653
 20
194.31736003915771
 30
0.0
 11
85.467074056341076
 21
193.5008634582301
 31
0.0
  0
LINE
  5
86E
  8
0
  6
CONTINUOUS
 62
     4
 10
84.194281850205485
 20
194.7736556643658
 30
0.0
 11
85.010778431133076
 21
195.5901522452935
 31
0.0
  0
LINE
  5
86F
  8
0
  6
CONTINUOUS
 62
     4
 10
83.950118259353076
 20
195.23659885470019
 30
0.0
 11
84.657225040539743
 21
195.94370563588669
 31
0.0
  0
LINE
  5
870
  8
0
  6
CONTINUOUS
 62
     4
 10
83.950118259353076
 20
195.23659885470019
 30
0.0
 11
84.248976750075826
 21
196.35195392635069
 31
0.0
  0
LINE
  5
871
  8
0
  6
CONTINUOUS
 62
     4
 10
84.303671649946395
 20
194.88304546410691
 30
0.0
 11
83.950118259353076
 21
195.23659885470019
 31
0.0
  0
LINE
  5
872
  8
0
  6
CONTINUOUS
 62
     4
 10
85.467074056341076
 20
193.5008634582301
 30
0.0
 11
84.194281850205485
 21
194.7736556643658
 31
0.0
  0
LINE
  5
873
  8
0
  6
CONTINUOUS
 62
     4
 10
85.875322346804978
 20
193.9091117486939
 30
0.0
 11
84.60253014066916
 21
195.18190395482961
 31
0.0
  0
LINE
  5
874
  8
0
  6
CONTINUOUS
 10
84.913036016766569
 20
192.66398270618069
 30
0.0
 11
84.418061269935606
 21
192.66398270618069
 31
0.0
  0
LINE
  5
875
  8
0
  6
CONTINUOUS
 10
81.377502110833461
 20
195.70454186528229
 30
0.0
 11
84.418061269935833
 21
192.66398270618041
 31
0.0
  0
LINE
  5
876
  8
0
  6
CONTINUOUS
 10
84.913036016766455
 20
199.24007577121549
 30
0.0
 11
87.953595175868713
 21
196.19951661211331
 31
0.0
  0
ENDBLK
  5
877
  8
0
  0
BLOCK
  8
0
  2
SZGFG
 70
     0
 10
0.0
 20
0.0
 30
0.0
  3
SZGFG
  1

  0
LINE
  5
2AD7
  8
0
  6
CONTINUOUS
 62
     3
 10
288.6152800117635
 20
143.94755516990219
 30
0.0
 11
297.2722104434265
 21
147.0986609094744
 31
0.0
  0
LINE
  5
2AD8
  8
0
  6
CENTER
 62
     6
 10
295.73281909903773
 20
151.43665890697039
 30
0.0
 11
298.91643289771213
 21
142.6897518828473
 31
0.0
  0
LINE
  5
2AD9
  8
0
  6
CONTINUOUS
 62
     3
 10
297.2722104434265
 20
147.0986609094744
 30
0.0
 11
292.09540705571192
 21
142.75459046597831
 31
0.0
  0
LINE
  5
2ADA
  8
0
  6
CONTINUOUS
 62
     3
 10
290.51423431846371
 20
147.09849496112241
 30
0.0
 11
292.09540705571192
 21
142.75459046597831
 31
0.0
  0
LINE
  5
2ADB
  8
0
  6
CONTINUOUS
 62
     3
 10
297.2722104434265
 20
147.0986609094744
 30
0.0
 11
290.51423431846371
 21
147.09849496112241
 31
0.0
  0
INSERT
  5
2ADC
  8
0
  6
CONTINUOUS
 62
     7
  2
*X28
 10
0.0
 20
0.0
 30
0.0
1001
ACAD
1000
HATCH
1002
{
1070
    19
1000
ANSI31
1040
0.5
1040
24.756814761131292
1000
R14_HATCH_DATA
1000
2ADC
1011
1.0
1021
-1.1413573603328148E+013
1031
-26561478664.204453
1021
0.0
1031
0.0
1011
0.0
1021
-1.1413573603328148E+013
1031
-26561478664.204453
1021
1.0
1031
0.0
1011
0.0
1021
-1.1413573603328148E+013
1031
-26561478664.204453
1021
0.0
1031
1.0
1040
0.0
1010
0.0
1020
0.0
1030
1.0
1000
ANSI31
1070
     0
1070
     0
1071
        1
1071
        7
1070
     0
1070
     1
1071
        3
1040
291.30482068708812
1040
144.9265427135503
1040
297.27221044342679
1040
147.09866090947449
1040
290.51423431846388
1040
147.09849496112241
1071
        0
1070
     0
1070
     1
1040
24.756814761131292
1040
0.5
1070
     0
1070
     1
1040
0.409471695810392
1040
-352.79435710434569
1040
-667.39905656787869
1040
-0.0248827971004312
1040
0.0573332051123847
1070
     0
1040
0.0067328972234235
1071
        1
1040
162.70487846657139
1040
40.765216351816299
1040
0.0
1002
}
  0
ENDBLK
  5
2AD6
  8
0
  0
BLOCK
  8
0
  2
_OBLIQUE
 70
     0
 10
0.0
 20
0.0
 30
0.0
  3
_OBLIQUE
  1

  0
LINE
  5
5426
  8
0
  6
BYBLOCK
 62
     0
 10
-0.5
 20
-0.5
 30
0.0
 11
0.5
 21
0.5
 31
0.0
  0
ENDBLK
  5
5427
  8
0
  0
BLOCK
  8
0
  2
SEFRGRG
 70
     0
 10
0.0
 20
0.0
 30
0.0
  3
SEFRGRG
  1

  0
POLYLINE
  5
CFFA
  8
0
  6
BYBLOCK
 62
     4
 66
     1
 10
0.0
 20
0.0
 30
0.0
 70
     1
  0
VERTEX
  5
1C48A
  8
0
  6
BYBLOCK
 62
     4
 10
55.393087332994071
 20
401.89766121491078
 30
0.0
  0
VERTEX
  5
1C48B
  8
0
  6
BYBLOCK
 62
     4
 10
55.193087332994139
 20
401.36432788157748
 30
0.0
  0
VERTEX
  5
1C48C
  8
0
  6
BYBLOCK
 62
     4
 10
55.193087332994139
 20
400.5945523235863
 30
0.0
  0
VERTEX
  5
1C48D
  8
0
  6
BYBLOCK
 62
     4
 10
55.479967548345883
 20
400.09766121491072
 30
0.0
  0
VERTEX
  5
1C48E
  8
0
  6
BYBLOCK
 62
     4
 10
56.19713198159485
 20
400.09766121491072
 30
0.0
  0
VERTEX
  5
1C48F
  8
0
  6
BYBLOCK
 62
     4
 10
56.743087332994087
 20
398.59766121491077
 30
0.0
  0
VERTEX
  5
1C490
  8
0
  6
BYBLOCK
 62
     4
 10
58.243087332994087
 20
398.59766121491077
 30
0.0
  0
VERTEX
  5
1C491
  8
0
  6
BYBLOCK
 62
     4
 10
59.743087332994087
 20
398.59766121491077
 30
0.0
  0
VERTEX
  5
1C492
  8
0
  6
BYBLOCK
 62
     4
 10
60.289042684393451
 20
400.09766121491072
 30
0.0
  0
VERTEX
  5
1C493
  8
0
  6
BYBLOCK
 62
     4
 10
61.006207117642418
 20
400.09766121491072
 30
0.0
  0
VERTEX
  5
1C494
  8
0
  6
BYBLOCK
 62
     4
 10
61.293087332994162
 20
400.5945523235863
 30
0.0
  0
VERTEX
  5
1C495
  8
0
  6
BYBLOCK
 62
     4
 10
61.293087332994162
 20
401.36432788157748
 30
0.0
  0
VERTEX
  5
1C496
  8
0
  6
BYBLOCK
 62
     4
 10
61.093087332994109
 20
401.89766121491078
 30
0.0
  0
VERTEX
  5
1C497
  8
0
  6
BYBLOCK
 62
     4
 10
61.093087332994109
 20
405.1976612149108
 30
0.0
  0
VERTEX
  5
1C498
  8
0
  6
BYBLOCK
 62
     4
 10
58.243087332994087
 20
405.1976612149108
 30
0.0
  0
VERTEX
  5
1C499
  8
0
  6
BYBLOCK
 62
     4
 10
55.393087332994178
 20
405.1976612149108
 30
0.0
  0
SEQEND
  5
1C49A
  8
0
  6
BYBLOCK
 62
     4
  0
LINE
  5
CFFB
  8
0
  6
BYBLOCK
 62
     4
 10
55.393087332994071
 20
401.89766121491078
 30
0.0
 11
61.093087332994109
 21
401.89766121491078
 31
0.0
  0
LINE
  5
CFFC
  8
0
  6
BYBLOCK
 62
     4
 10
55.193087332994139
 20
401.36432788157748
 30
0.0
 11
61.293087332994162
 21
401.36432788157748
 31
0.0
  0
LINE
  5
CFFD
  8
0
  6
BYBLOCK
 62
     4
 10
55.193087332994139
 20
400.5945523235863
 30
0.0
 11
61.293087332994162
 21
400.5945523235863
 31
0.0
  0
LINE
  5
CFFE
  8
0
  6
BYBLOCK
 62
     4
 10
56.19713198159485
 20
400.09766121491072
 30
0.0
 11
60.289042684393451
 21
400.09766121491072
 31
0.0
  0
LINE
  5
CFFF
  8
0
  6
BYBLOCK
 62
     4
 10
54.243087332994087
 20
417.19766121491062
 30
0.0
 11
54.243087332994087
 21
415.3976612149101
 31
0.0
  0
LINE
  5
D000
  8
0
  6
BYBLOCK
 62
     4
 10
62.2430873329942
 20
417.19766121491051
 30
0.0
 11
62.24308733299398
 21
415.39766121491039
 31
0.0
  0
LINE
  5
D001
  8
0
  6
BYBLOCK
 62
     4
 10
61.243087332994207
 20
405.3976612149105
 30
0.0
 11
61.243087332994207
 21
415.19766121491028
 31
0.0
  0
LINE
  5
D002
  8
0
  6
BYBLOCK
 62
     4
 10
55.243087332994101
 20
415.19766121491051
 30
0.0
 11
55.243087332994101
 21
405.39766121491061
 31
0.0
  0
LINE
  5
D003
  8
0
  6
BYBLOCK
 62
     4
 10
55.243087332994101
 20
405.39766121491061
 30
0.0
 11
61.243087332994207
 21
405.3976612149105
 31
0.0
  0
LINE
  5
D004
  8
0
  6
BYBLOCK
 62
     4
 10
55.243087332994101
 20
405.39766121491061
 30
0.0
 11
55.443087332994367
 21
405.1976612149108
 31
0.0
  0
LINE
  5
D005
  8
0
  6
BYBLOCK
 62
     4
 10
61.043087332994041
 20
405.1976612149108
 30
0.0
 11
61.243087332994207
 21
405.3976612149105
 31
0.0
  0
LINE
  5
D006
  8
0
  6
BYBLOCK
 62
     4
 10
58.243087332994207
 20
415.19766121494609
 30
0.0
 11
54.443087332994253
 21
415.19766121491051
 31
0.0
  0
LINE
  5
D007
  8
0
  6
BYBLOCK
 62
     4
 10
54.443087332994253
 20
415.19766121491051
 30
0.0
 11
54.243087332994087
 21
415.3976612149101
 31
0.0
  0
LINE
  5
D008
  8
0
  6
BYBLOCK
 62
     4
 10
62.043087332994048
 20
415.19766121491011
 30
0.0
 11
58.243087332994207
 21
415.1976612149096
 31
0.0
  0
LINE
  5
D009
  8
0
  6
BYBLOCK
 62
     4
 10
62.043087332994048
 20
415.19766121491011
 30
0.0
 11
62.24308733299398
 21
415.39766121491039
 31
0.0
  0
LINE
  5
D00A
  8
0
  6
BYBLOCK
 62
     4
 10
63.243087332994207
 20
424.6976612149108
 30
0.0
 11
63.243087332994207
 21
428.69766121491062
 31
0.0
  0
LINE
  5
D00B
  8
0
  6
BYBLOCK
 62
     4
 10
53.243087332994321
 20
428.6976612149108
 30
0.0
 11
53.243087332994207
 21
424.6976612149104
 31
0.0
  0
LINE
  5
D00C
  8
0
  6
BYBLOCK
 62
     4
 10
54.043087332994162
 20
429.99766121491041
 30
0.0
 11
54.043087332994162
 21
417.39766121491073
 31
0.0
  0
LINE
  5
D00D
  8
0
  6
BYBLOCK
 62
     4
 10
55.356335987046407
 20
429.69766121491068
 30
0.0
 11
55.356335987046521
 21
424.19766121491119
 31
0.0
  0
LINE
  5
D00E
  8
0
  6
BYBLOCK
 62
     4
 10
56.799711660020371
 20
429.6976612149108
 30
0.0
 11
56.799711660020023
 21
424.19766121491108
 31
0.0
  0
LINE
  5
D00F
  8
0
  6
BYBLOCK
 62
     4
 10
62.443087332994139
 20
429.99766121491041
 30
0.0
 11
62.443087332994018
 21
417.39766121491073
 31
0.0
  0
LINE
  5
D010
  8
0
  6
BYBLOCK
 62
     4
 10
59.686463005968513
 20
429.69766121491062
 30
0.0
 11
59.686463005967823
 21
424.19766121491108
 31
0.0
  0
LINE
  5
D011
  8
0
  6
BYBLOCK
 62
     4
 10
61.129838678942122
 20
429.69766121491062
 30
0.0
 11
61.129838678942122
 21
424.19766121491119
 31
0.0
  0
LINE
  5
D012
  8
0
  6
BYBLOCK
 62
     4
 10
61.129838678942122
 20
424.19766121491119
 30
0.0
 11
55.356335987045838
 21
424.19766121491142
 31
0.0
  0
LINE
  5
D013
  8
0
  6
BYBLOCK
 62
     4
 10
60.743087332994087
 20
422.19766121491108
 30
0.0
 11
55.74308733299398
 21
422.19766121491102
 31
0.0
  0
LINE
  5
D014
  8
0
  6
BYBLOCK
 62
     4
 10
60.743087332994207
 20
422.19766121491102
 30
0.0
 11
58.243087332994087
 21
420.75428554193718
 31
0.0
  0
LINE
  5
D015
  8
0
  6
BYBLOCK
 62
     4
 10
53.243087332994087
 20
423.69766121491091
 30
0.0
 11
53.243087332993859
 21
418.19766121491062
 31
0.0
  0
LINE
  5
D016
  8
0
  6
BYBLOCK
 62
     4
 10
55.74308733299398
 20
422.19766121491102
 30
0.0
 11
58.243087332994087
 21
420.75428554193718
 31
0.0
  0
LINE
  5
D017
  8
0
  6
BYBLOCK
 62
     4
 10
53.243087332993859
 20
418.19766121491062
 30
0.0
 11
54.243087332994087
 21
417.19766121491062
 31
0.0
  0
LINE
  5
D018
  8
0
  6
BYBLOCK
 62
     4
 10
53.243087332994207
 20
424.6976612149104
 30
0.0
 11
53.243087332994087
 21
423.69766121491091
 31
0.0
  0
LINE
  5
D019
  8
0
  6
BYBLOCK
 62
     4
 10
55.743087332993859
 20
424.19766121491142
 30
0.0
 11
55.74308733299398
 21
422.19766121491102
 31
0.0
  0
LINE
  5
D01A
  8
0
  6
BYBLOCK
 62
     4
 10
63.243087332994087
 20
418.19766121491062
 30
0.0
 11
63.24308733299398
 21
423.69766121491068
 31
0.0
  0
LINE
  5
D01B
  8
0
  6
BYBLOCK
 62
     4
 10
62.2430873329942
 20
417.19766121491051
 30
0.0
 11
63.243087332994087
 21
418.19766121491062
 31
0.0
  0
LINE
  5
D01C
  8
0
  6
BYBLOCK
 62
     4
 10
60.743087332994087
 20
424.19766121491091
 30
0.0
 11
60.743087332994087
 21
422.19766121491108
 31
0.0
  0
LINE
  5
D01D
  8
0
  6
BYBLOCK
 62
     4
 10
63.24308733299398
 20
423.69766121491068
 30
0.0
 11
63.243087332994207
 21
424.6976612149108
 31
0.0
  0
LINE
  5
D01E
  8
0
  6
BYBLOCK
 62
     4
 10
62.243087332994321
 20
430.1976612149108
 30
0.0
 11
54.243087332994087
 21
430.1976612149108
 31
0.0
  0
LINE
  5
D01F
  8
0
  6
BYBLOCK
 62
     4
 10
61.129838678942122
 20
429.69766121491062
 30
0.0
 11
58.243087332994207
 21
429.69766121491062
 31
0.0
  0
LINE
  5
D020
  8
0
  6
BYBLOCK
 62
     4
 10
53.243087332994548
 20
429.19766121491068
 30
0.0
 11
63.243087332994207
 21
429.19766121491102
 31
0.0
  0
LINE
  5
D021
  8
0
  6
BYBLOCK
 62
     4
 10
55.356335987046407
 20
429.69766121491068
 30
0.0
 11
58.243087332994207
 21
429.69766121491062
 31
0.0
  0
LINE
  5
D022
  8
0
  6
BYBLOCK
 62
     4
 10
53.243087332994321
 20
428.6976612149108
 30
0.0
 11
53.243087332994321
 21
428.6976612149108
 31
0.0
  0
LINE
  5
D023
  8
0
  6
BYBLOCK
 62
     4
 10
53.243087332994548
 20
429.19766121491068
 30
0.0
 11
53.243087332994321
 21
428.6976612149108
 31
0.0
  0
LINE
  5
D024
  8
0
  6
BYBLOCK
 62
     4
 10
54.243087332994087
 20
430.1976612149108
 30
0.0
 11
53.243087332994548
 21
429.19766121491068
 31
0.0
  0
LINE
  5
D025
  8
0
  6
BYBLOCK
 62
     4
 10
54.856335987046521
 20
430.19766121491091
 30
0.0
 11
55.356335987046407
 21
429.69766121491068
 31
0.0
  0
LINE
  5
D026
  8
0
  6
BYBLOCK
 62
     4
 10
61.629838678942122
 20
430.19766121491051
 30
0.0
 11
61.129838678942122
 21
429.69766121491062
 31
0.0
  0
LINE
  5
D027
  8
0
  6
BYBLOCK
 62
     4
 10
63.243087332994207
 20
429.19766121491062
 30
0.0
 11
62.243087332994321
 21
430.1976612149108
 31
0.0
  0
LINE
  5
D028
  8
0
  6
BYBLOCK
 62
     4
 10
63.243087332994207
 20
428.69766121491062
 30
0.0
 11
63.243087332994207
 21
429.19766121491062
 31
0.0
  0
LINE
  5
D029
  8
0
  6
BYBLOCK
 62
     4
 10
63.243087332994207
 20
428.69766121491062
 30
0.0
 11
63.243087332994207
 21
428.69766121491062
 31
0.0
  0
LINE
  5
D02A
  8
0
  6
BYBLOCK
 62
     4
 10
55.443087332994367
 20
405.1976612149108
 30
0.0
 11
58.243087332994087
 21
405.1976612149108
 31
0.0
  0
LINE
  5
D02B
  8
0
  6
BYBLOCK
 62
     4
 10
58.243087332994087
 20
405.1976612149108
 30
0.0
 11
61.043087332994041
 21
405.1976612149108
 31
0.0
  0
LINE
  5
D02C
  8
0
  6
BYBLOCK
 62
     4
 10
54.243087332994087
 20
415.3976612149101
 30
0.0
 11
58.243087332994087
 21
415.3976612149101
 31
0.0
  0
LINE
  5
D02D
  8
0
  6
BYBLOCK
 62
     4
 10
58.243087332994087
 20
415.3976612149101
 30
0.0
 11
62.24308733299398
 21
415.39766121491039
 31
0.0
  0
LINE
  5
D02E
  8
0
  6
BYBLOCK
 62
     4
 10
54.243087332994087
 20
417.19766121491062
 30
0.0
 11
58.243087332994087
 21
417.19766121491062
 31
0.0
  0
LINE
  5
D02F
  8
0
  6
BYBLOCK
 62
     4
 10
58.243087332994087
 20
417.19766121491062
 30
0.0
 11
62.2430873329942
 21
417.19766121491011
 31
0.0
  0
LINE
  5
D030
  8
0
  6
BYBLOCK
 62
     4
 10
53.243087332993859
 20
418.19766121491062
 30
0.0
 11
58.243087332994207
 21
418.19766121491062
 31
0.0
  0
LINE
  5
D031
  8
0
  6
BYBLOCK
 62
     4
 10
58.243087332994207
 20
418.19766121491062
 30
0.0
 11
63.243087332994087
 21
418.19766121491062
 31
0.0
  0
ENDBLK
  5
CFF9
  8
0
  0
BLOCK
  8
0
  2
*D4
 70
     1
 10
0.0
 20
0.0
 30
0.0
  3
*D4
  1

  0
LINE
  5
111DE
  8
0
  6
CONTINUOUS
 62
     2
 10
287.99792822933171
 20
196.75363911459519
 30
0.0
 11
287.99792822933171
 21
200.7653742300138
 31
0.0
  0
LINE
  5
111DF
  8
0
  6
CONTINUOUS
 62
     2
 10
299.99792822933171
 20
196.75363911459519
 30
0.0
 11
299.99792822933171
 21
200.7653742300138
 31
0.0
  0
LINE
  5
111E0
  8
0
  6
CONTINUOUS
 62
     2
 10
290.49792822933171
 20
199.56537423001379
 30
0.0
 11
297.49792822933171
 21
199.56537423001379
 31
0.0
  0
SOLID
  5
111E1
  8
0
  6
CONTINUOUS
 62
     2
 10
290.49792822933171
 20
199.9820408966805
 30
0.0
 11
290.49792822933171
 21
199.14870756334719
 31
0.0
 12
287.99792822933171
 22
199.56537423001379
 32
0.0
 13
287.99792822933171
 23
199.56537423001379
 33
0.0
  0
SOLID
  5
111E2
  8
0
  6
CONTINUOUS
 62
     2
 10
297.49792822933171
 20
199.9820408966805
 30
0.0
 11
297.49792822933171
 21
199.14870756334719
 31
0.0
 12
299.99792822933171
 22
199.56537423001379
 32
0.0
 13
299.99792822933171
 23
199.56537423001379
 33
0.0
  0
INSERT
  5
111E3
  8
0
  6
CONTINUOUS
  2
*U29
 10
0.0
 20
0.0
 30
0.0
  0
POINT
  5
111E4
  8
DEFPOINTS
  6
CONTINUOUS
 62
     0
 10
287.99792822933171
 20
196.75363911459519
 30
0.0
  0
POINT
  5
111E5
  8
DEFPOINTS
  6
CONTINUOUS
 62
     0
 10
299.99792822933171
 20
196.75363911459519
 30
0.0
  0
POINT
  5
111E6
  8
DEFPOINTS
  6
CONTINUOUS
 62
     0
 10
299.99792822933171
 20
199.56537423001379
 30
0.0
  0
ENDBLK
  5
111E7
  8
0
  0
BLOCK
  8
0
  2
*D5
 70
     1
 10
0.0
 20
0.0
 30
0.0
  3
*D5
  1

  0
LINE
  5
111EA
  8
0
  6
CONTINUOUS
 62
     2
 10
302.02997903690078
 20
193.08893200856579
 30
0.0
 11
309.74484731831501
 21
206.4514758456699
 31
0.0
  0
LINE
  5
111EB
  8
0
  6
CONTINUOUS
 62
     2
 10
285.96587742176149
 20
193.0889320085663
 30
0.0
 11
278.25100914034931
 21
206.45147584567309
 31
0.0
  0
ARC
  5
111EC
  8
0
  6
CONTINUOUS
 62
     2
 10
293.99792822932937
 20
179.17701192088489
 30
0.0
 40
30.49383817795885
 50
64.698640864752775
 51
115.3013591352356
  0
SOLID
  5
111ED
  8
0
  6
CONTINUOUS
 62
     2
 10
307.22373028084428
 20
207.1147303482328
 30
0.0
 11
306.8369971781085
 21
206.37656915195339
 31
0.0
 12
309.24484731831478
 22
205.5854504418856
 32
0.0
 13
309.24484731831478
 23
205.5854504418856
 33
0.0
  0
SOLID
  5
111EE
  8
0
  6
CONTINUOUS
 62
     2
 10
281.1588592805557
 20
206.37656915195589
 30
0.0
 11
280.7721261778201
 21
207.1147303482355
 31
0.0
 12
278.7510091403492
 22
205.5854504418887
 32
0.0
 13
278.7510091403492
 23
205.5854504418887
 33
0.0
  0
INSERT
  5
111EF
  8
0
  6
CONTINUOUS
  2
*U30
 10
0.0
 20
0.0
 30
0.0
  0
POINT
  5
111F0
  8
DEFPOINTS
  6
CONTINUOUS
 62
     0
 10
299.29312765900647
 20
209.20758017763771
 30
0.0
  0
POINT
  5
111F1
  8
DEFPOINTS
  6
CONTINUOUS
 62
     0
 10
286.9586977447895
 20
191.36931676629499
 30
0.0
  0
POINT
  5
111F2
  8
DEFPOINTS
  6
CONTINUOUS
 62
     0
 10
301.0371587138726
 20
191.36931676629499
 30
0.0
  0
POINT
  5
111F3
  8
DEFPOINTS
  6
CONTINUOUS
 62
     0
 10
301.72997903690072
 20
192.56931676629529
 30
0.0
  0
POINT
  5
111F4
  8
DEFPOINTS
  6
CONTINUOUS
 62
     0
 10
286.2658774217615
 20
192.5693167662956
 30
0.0
  0
ENDBLK
  5
111F5
  8
0
  0
BLOCK
  8
0
  2
*D6
 70
     1
 10
0.0
 20
0.0
 30
0.0
  3
*D6
  1

  0
LINE
  5
111F8
  8
0
  6
CONTINUOUS
 62
     2
 10
305.69482994525879
 20
241.8928634861127
 30
0.0
 11
305.69482994525879
 21
248.2564630415165
 31
0.0
  0
LINE
  5
111F9
  8
0
  6
CONTINUOUS
 62
     2
 10
311.69482994525879
 20
241.8928634861127
 30
0.0
 11
311.69482994525879
 21
248.2564630415165
 31
0.0
  0
LINE
  5
111FA
  8
0
  6
CONTINUOUS
 62
     2
 10
303.19482994525879
 20
247.05646304151651
 30
0.0
 11
300.69482994525879
 21
247.05646304151651
 31
0.0
  0
LINE
  5
111FB
  8
0
  6
CONTINUOUS
 62
     2
 10
314.19482994525879
 20
247.05646304151651
 30
0.0
 11
316.69482994525879
 21
247.05646304151651
 31
0.0
  0
LINE
  5
111FC
  8
0
  6
CONTINUOUS
 62
     2
 10
305.69482994525879
 20
247.05646304151651
 30
0.0
 11
311.69482994525879
 21
247.05646304151651
 31
0.0
  0
SOLID
  5
111FD
  8
0
  6
CONTINUOUS
 62
     2
 10
303.19482994525879
 20
247.47312970818319
 30
0.0
 11
303.19482994525879
 21
246.63979637484991
 31
0.0
 12
305.69482994525879
 22
247.05646304151651
 32
0.0
 13
305.69482994525879
 23
247.05646304151651
 33
0.0
  0
SOLID
  5
111FE
  8
0
  6
CONTINUOUS
 62
     2
 10
314.19482994525879
 20
247.47312970818319
 30
0.0
 11
314.19482994525879
 21
246.63979637484991
 31
0.0
 12
311.69482994525879
 22
247.05646304151651
 32
0.0
 13
311.69482994525879
 23
247.05646304151651
 33
0.0
  0
INSERT
  5
111FF
  8
0
  6
CONTINUOUS
  2
*U31
 10
0.0
 20
0.0
 30
0.0
  0
POINT
  5
11200
  8
DEFPOINTS
  6
CONTINUOUS
 62
     0
 10
305.69482994525879
 20
241.8928634861127
 30
0.0
  0
POINT
  5
11201
  8
DEFPOINTS
  6
CONTINUOUS
 62
     0
 10
311.69482994525879
 20
241.8928634861127
 30
0.0
  0
POINT
  5
11202
  8
DEFPOINTS
  6
CONTINUOUS
 62
     0
 10
311.69482994525879
 20
247.05646304151651
 30
0.0
  0
ENDBLK
  5
11203
  8
0
  0
BLOCK
  8
0
  2
*D7
 70
     1
 10
0.0
 20
0.0
 30
0.0
  3
*D7
  1

  0
LINE
  5
11206
  8
0
  6
CONTINUOUS
 62
     2
 10
290.69482994525879
 20
241.8928634861127
 30
0.0
 11
290.69482994525879
 21
248.2564630415165
 31
0.0
  0
LINE
  5
11207
  8
0
  6
CONTINUOUS
 62
     2
 10
305.69482994525879
 20
241.8928634861127
 30
0.0
 11
305.69482994525879
 21
248.2564630415165
 31
0.0
  0
LINE
  5
11208
  8
0
  6
CONTINUOUS
 62
     2
 10
293.19482994525879
 20
247.05646304151651
 30
0.0
 11
303.19482994525879
 21
247.05646304151651
 31
0.0
  0
SOLID
  5
11209
  8
0
  6
CONTINUOUS
 62
     2
 10
293.19482994525879
 20
247.47312970818319
 30
0.0
 11
293.19482994525879
 21
246.63979637484991
 31
0.0
 12
290.69482994525879
 22
247.05646304151651
 32
0.0
 13
290.69482994525879
 23
247.05646304151651
 33
0.0
  0
SOLID
  5
1120A
  8
0
  6
CONTINUOUS
 62
     2
 10
303.19482994525879
 20
247.47312970818319
 30
0.0
 11
303.19482994525879
 21
246.63979637484991
 31
0.0
 12
305.69482994525879
 22
247.05646304151651
 32
0.0
 13
305.69482994525879
 23
247.05646304151651
 33
0.0
  0
INSERT
  5
1120B
  8
0
  6
CONTINUOUS
  2
*U32
 10
0.0
 20
0.0
 30
0.0
  0
POINT
  5
1120C
  8
DEFPOINTS
  6
CONTINUOUS
 62
     0
 10
290.69482994525879
 20
241.8928634861127
 30
0.0
  0
POINT
  5
1120D
  8
DEFPOINTS
  6
CONTINUOUS
 62
     0
 10
305.69482994525879
 20
241.8928634861127
 30
0.0
  0
POINT
  5
1120E
  8
DEFPOINTS
  6
CONTINUOUS
 62
     0
 10
305.69482994525879
 20
247.05646304151651
 30
0.0
  0
ENDBLK
  5
1120F
  8
0
  0
BLOCK
  8
0
  2
*D8
 70
     1
 10
0.0
 20
0.0
 30
0.0
  3
*D8
  1

  0
LINE
  5
11212
  8
0
  6
CONTINUOUS
 62
     2
 10
278.69482994525879
 20
241.81061168222951
 30
0.0
 11
278.69482994525879
 21
248.05646304151659
 31
0.0
  0
LINE
  5
11213
  8
0
  6
CONTINUOUS
 62
     2
 10
290.69482994525879
 20
241.81061168222951
 30
0.0
 11
290.69482994525879
 21
248.05646304151659
 31
0.0
  0
LINE
  5
11214
  8
0
  6
CONTINUOUS
 62
     2
 10
281.19482994525879
 20
247.05646304151651
 30
0.0
 11
288.19482994525879
 21
247.05646304151651
 31
0.0
  0
SOLID
  5
11215
  8
0
  6
CONTINUOUS
 62
     2
 10
281.19482994525879
 20
247.47312970818319
 30
0.0
 11
281.19482994525879
 21
246.63979637484991
 31
0.0
 12
278.69482994525879
 22
247.05646304151651
 32
0.0
 13
278.69482994525879
 23
247.05646304151651
 33
0.0
  0
SOLID
  5
11216
  8
0
  6
CONTINUOUS
 62
     2
 10
288.19482994525879
 20
247.47312970818319
 30
0.0
 11
288.19482994525879
 21
246.63979637484991
 31
0.0
 12
290.69482994525879
 22
247.05646304151651
 32
0.0
 13
290.69482994525879
 23
247.05646304151651
 33
0.0
  0
INSERT
  5
11217
  8
0
  6
CONTINUOUS
  2
*U33
 10
0.0
 20
0.0
 30
0.0
  0
POINT
  5
11218
  8
DEFPOINTS
  6
CONTINUOUS
 62
     0
 10
278.69482994525879
 20
241.21061168222951
 30
0.0
  0
POINT
  5
11219
  8
DEFPOINTS
  6
CONTINUOUS
 62
     0
 10
290.69482994525879
 20
241.21061168222951
 30
0.0
  0
POINT
  5
1121A
  8
DEFPOINTS
  6
CONTINUOUS
 62
     0
 10
290.69482994525879
 20
247.05646304151651
 30
0.0
  0
ENDBLK
  5
1121B
  8
0
  0
BLOCK
  8
0
  2
*D9
 70
     1
 10
0.0
 20
0.0
 30
0.0
  3
*D9
  1

  0
LINE
  5
1121E
  8
0
  6
CONTINUOUS
 62
     2
 10
306.48658803493367
 20
193.76931676629479
 30
0.0
 11
314.29007155434772
 21
193.76931676629479
 31
0.0
  0
LINE
  5
1121F
  8
0
  6
CONTINUOUS
 62
     2
 10
300.59792822933059
 20
190.76931676629539
 30
0.0
 11
314.29007155434772
 21
190.76931676629539
 31
0.0
  0
LINE
  5
11220
  8
0
  6
CONTINUOUS
 62
     2
 10
313.29007155434772
 20
196.26931676629479
 30
0.0
 11
313.29007155434772
 21
198.76931676629479
 31
0.0
  0
LINE
  5
11221
  8
0
  6
CONTINUOUS
 62
     2
 10
313.29007155434772
 20
188.26931676629539
 30
0.0
 11
313.29007155434772
 21
180.24269049285911
 31
0.0
  0
LINE
  5
11222
  8
0
  6
CONTINUOUS
 62
     2
 10
313.29007155434772
 20
193.76931676629479
 30
0.0
 11
313.29007155434772
 21
190.76931676629539
 31
0.0
  0
SOLID
  5
11223
  8
0
  6
CONTINUOUS
 62
     2
 10
312.87340488768098
 20
196.26931676629479
 30
0.0
 11
313.7067382210144
 21
196.26931676629479
 31
0.0
 12
313.29007155434772
 22
193.76931676629479
 32
0.0
 13
313.29007155434772
 23
193.76931676629479
 33
0.0
  0
SOLID
  5
11224
  8
0
  6
CONTINUOUS
 62
     2
 10
312.87340488768098
 20
188.26931676629539
 30
0.0
 11
313.7067382210144
 21
188.26931676629539
 31
0.0
 12
313.29007155434772
 22
190.76931676629539
 32
0.0
 13
313.29007155434772
 23
190.76931676629539
 33
0.0
  0
INSERT
  5
11225
  8
0
  6
CONTINUOUS
  2
*U34
 10
0.0
 20
0.0
 30
0.0
  0
POINT
  5
11226
  8
DEFPOINTS
  6
CONTINUOUS
 62
     0
 10
305.8865880349336
 20
193.76931676629479
 30
0.0
  0
POINT
  5
11227
  8
DEFPOINTS
  6
CONTINUOUS
 62
     0
 10
299.99792822933063
 20
190.76931676629539
 30
0.0
  0
POINT
  5
11228
  8
DEFPOINTS
  6
CONTINUOUS
 62
     0
 10
313.29007155434772
 20
190.76931676629539
 30
0.0
  0
ENDBLK
  5
11229
  8
0
  0
BLOCK
  8
0
  2
SGGGGG
 70
     0
 10
0.0
 20
0.0
 30
0.0
  3
SGGGGG
  1

  0
DIMENSION
  5
11283
  8
0
  6
CONTINUOUS
 62
     7
  2
*D4
 10
299.99792822933171
 20
199.56537423001379
 30
0.0
 11
293.99792822933171
 21
199.56537423001379
 31
0.0
 70
   128
  1
2
  3
KSM
 13
287.99792822933171
 23
196.75363911459519
 33
0.0
 14
299.99792822933171
 24
196.75363911459519
 34
0.0
1001
ACAD
1000
DSTYLE
1002
{
1070
    47
1040
0.1
1070
    71
1070
     0
1070
    48
1040
-0.02
1070
   146
1040
0.7
1070
   272
1070
     3
1070
   271
1070
     3
1070
    41
1040
2.5
1002
}
  0
LINE
  5
11284
  8
0
  6
CONTINUOUS
 10
287.99792822933063
 20
190.76931676629539
 30
0.0
 11
299.99792822933063
 21
190.76931676629539
 31
0.0
1001
ACAD
1000
ASC_BOUNDS
1002
{
1070
    19
1005
11287
1002
}
  0
DIMENSION
  5
11285
  8
0
  6
CONTINUOUS
  2
*D5
 10
286.2658774217615
 20
192.5693167662956
 30
0.0
 11
293.99792822933239
 21
211.77085009884379
 31
0.0
 70
     2
  3
ISO-25
 13
301.0371587138726
 23
191.36931676629499
 33
0.0
 14
301.72997903690072
 24
192.56931676629529
 34
0.0
 15
286.9586977447895
 25
191.36931676629499
 35
0.0
 16
299.29312765900647
 26
209.20758017763771
 36
0.0
1001
ACAD
1000
DSTYLE
1002
{
1070
   287
1070
     2
1070
   271
1070
     0
1070
    42
1040
0.6
1070
    43
1040
1.0
1070
    44
1040
1.0
1070
    47
1040
0.1
1070
    48
1040
0.1
1070
    73
1070
     0
1070
   140
1040
3.0
1070
   141
1040
-0.5
1070
   146
1040
0.7
1070
   147
1040
0.6
1070
   178
1070
     3
1070
   271
1070
     8
1070
   272
1070
     8
1070
   275
1070
     1
1070
   283
1070
     0
1070
   284
1070
     8
1070
   289
1070
     2
1002
}
  0
CIRCLE
  5
11286
  8
0
  6
PHANTOM2
 62
     4
 10
293.99792822933148
 20
192.85384837242299
 30
0.0
 40
11.92385484453415
1001
ACAD
1000
ASC_BOUNDS
1002
{
1070
    19
1005
11287
1002
}
  0
INSERT
  5
11287
  8
0
  6
CONTINUOUS
 62
     2
  2
*X35
 10
0.0
 20
0.0
 30
0.0
1001
ACAD
1000
HATCH
1002
{
1070
    19
1000
ANSI31
1040
20.0
1040
1.5707963267948959
1000
ASC_BOUNDS
1070
     1
1070
     1
1070
    10
1005
11284
1005
11292
1005
11295
1005
11293
1005
11294
1005
11286
1005
1128D
1005
1128E
1005
1128F
1005
1128B
1000
ASC_SEEDPOINT
1011
286.99121463665568
1021
-1.1413573603328148E+013
1031
-26561478664.204453
1021
189.87813206589689
1031
0.0
1000
R14_HATCH_DATA
1000
11287
1011
1.0
1021
-1.1413573603328148E+013
1031
-26561478664.204453
1021
0.0
1031
0.0
1011
0.0
1021
-1.1413573603328148E+013
1031
-26561478664.204453
1021
1.0
1031
0.0
1011
0.0
1021
-1.1413573603328148E+013
1031
-26561478664.204453
1021
0.0
1031
1.0
1040
0.0
1010
0.0
1020
0.0
1030
1.0
1000
ANSI31
1070
     0
1070
     1
1071
        1
1071
        7
1070
     1
1070
     1
1071
       12
1040
286.9586977447895
1040
191.36931676629499
1040
0.0
1040
286.2658774217615
1040
192.5693167662956
1040
0.267949192431109
1040
284.18741645267892
1040
193.7693167662955
1040
0.0
1040
282.1092684237293
1040
193.7693167662955
1040
0.0192153241715236
1040
282.07407338479732
1040
192.85384837242299
1040
1.0
1040
305.92178307386558
1040
192.85384837242299
1040
0.0192153241715092
1040
305.88658803493371
1040
193.76931676629479
1040
0.0
1040
303.80844000598302
1040
193.76931676629479
1040
0.2679491924310595
1040
301.72997903690072
1040
192.56931676629529
1040
0.0
1040
301.0371587138726
1040
191.36931676629499
1040
-0.2679491924312333
1040
299.99792822933063
1040
190.76931676629539
1040
0.0
1040
287.99792822933063
1040
190.76931676629539
1040
-0.2679491924310256
1071
       10
1005
1128B
1005
1128F
1005
1128E
1005
1128D
1005
11286
1005
11294
1005
11293
1005
11295
1005
11292
1005
11284
1070
     0
1070
     1
1040
1.5707963267948959
1040
20.0
1070
     0
1070
     1
1040
2.3561944901923439
1040
-72.659410841503359
1040
0.2944895533866258
1040
-1.767766952966368
1040
-1.767766952966368
1070
     0
1040
0.0658359499010995
1071
        1
1040
286.99121463665568
1040
189.87813206589689
1040
0.0
1002
}
  0
LINE
  5
11288
  8
0
  6
CONTINUOUS
 62
     7
 10
285.67940902096632
 20
173.9583574744957
 30
0.0
 11
302.47268979767279
 21
173.9583574744957
 31
0.0
  0
TEXT
  5
11289
  8
0
  6
CONTINUOUS
 62
     7
 10
285.70136088643977
 20
175.621229377075
 30
0.0
 40
3.0
  1
DETAIL Y
  0
LINE
  5
1128A
  8
0
  6
CONTINUOUS
 62
     3
 10
285.67940902096632
 20
174.9583574744957
 30
0.0
 11
302.47268979767279
 21
174.9583574744957
 31
0.0
  0
ARC
  5
1128B
  8
0
  6
CONTINUOUS
 62
     7
 10
287.9979282293308
 20
191.96931676629541
 30
0.0
 40
1.2
 50
209.9999999999896
 51
270.0
1001
ACAD
1000
ASC_BOUNDS
1002
{
1070
    19
1005
11287
1002
}
  0
LINE
  5
1128C
  8
0
  6
CENTER
 62
     2
 10
287.99792822933171
 20
195.38913550682869
 30
0.0
 11
287.99792822933171
 21
184.91288512009589
 31
0.0
  0
LINE
  5
1128D
  8
0
  6
CONTINUOUS
 62
     7
 10
282.1092684237293
 20
193.7693167662955
 30
0.0
 11
284.18741645267892
 21
193.7693167662955
 31
0.0
1001
ACAD
1000
ASC_BOUNDS
1002
{
1070
    19
1005
11287
1002
}
  0
ARC
  5
1128E
  8
0
  6
CONTINUOUS
 62
     7
 10
284.18741645267892
 20
191.3693167662955
 30
0.0
 40
2.399999999999999
 50
30.00000000000253
 51
90.0
1001
ACAD
1000
ASC_BOUNDS
1002
{
1070
    19
1005
11287
1002
}
  0
LINE
  5
1128F
  8
0
  6
CONTINUOUS
 62
     7
 10
286.9586977447895
 20
191.36931676629499
 30
0.0
 11
286.2658774217615
 21
192.5693167662956
 31
0.0
1001
ACAD
1000
ASC_BOUNDS
1002
{
1070
    19
1005
11287
1002
}
  0
LINE
  5
11290
  8
0
  6
CENTER
 62
     2
 10
299.99792822933171
 20
195.38913550682869
 30
0.0
 11
299.99792822933171
 21
184.91288512009589
 31
0.0
  0
DIMENSION
  5
11291
  8
0
  6
CONTINUOUS
  2
*D9
 10
313.29007155434772
 20
190.76931676629539
 30
0.0
 11
311.19007155434758
 21
183.00600362957721
 31
0.0
  1
0.5
  3
ISO-25
 13
305.8865880349336
 23
193.76931676629479
 33
0.0
 14
299.99792822933063
 24
190.76931676629539
 34
0.0
 50
90.0
1001
ACAD
1000
DSTYLE
1002
{
1070
   287
1070
     2
1070
    42
1040
0.6
1070
    43
1040
1.0
1070
    44
1040
1.0
1070
    47
1040
0.1
1070
    48
1040
0.1
1070
    73
1070
     0
1070
   140
1040
3.0
1070
   141
1040
-0.5
1070
   146
1040
0.7
1070
   147
1040
0.6
1070
   178
1070
     3
1070
   271
1070
     8
1070
   272
1070
     8
1070
   275
1070
     1
1070
   283
1070
     0
1070
   284
1070
     8
1070
   289
1070
     2
1002
}
  0
ARC
  5
11292
  8
0
  6
CONTINUOUS
 62
     7
 10
299.9979282293308
 20
191.96931676629541
 30
0.0
 40
1.2
 50
270.0
 51
329.99999999999699
1001
ACAD
1000
ASC_BOUNDS
1002
{
1070
    19
1005
11287
1002
}
  0
ARC
  5
11293
  8
0
  6
CONTINUOUS
 62
     7
 10
303.80844000598302
 20
191.36931676629479
 30
0.0
 40
2.399999999999999
 50
90.0
 51
149.99999999998531
1001
ACAD
1000
ASC_BOUNDS
1002
{
1070
    19
1005
11287
1002
}
  0
LINE
  5
11294
  8
0
  6
CONTINUOUS
 62
     7
 10
303.80844000598302
 20
193.76931676629479
 30
0.0
 11
305.8865880349336
 21
193.76931676629479
 31
0.0
1001
ACAD
1000
ASC_BOUNDS
1002
{
1070
    19
1005
11287
1002
}
  0
LINE
  5
11295
  8
0
  6
CONTINUOUS
 62
     7
 10
301.0371587138726
 20
191.36931676629499
 30
0.0
 11
301.72997903690072
 21
192.56931676629529
 31
0.0
1001
ACAD
1000
ASC_BOUNDS
1002
{
1070
    19
1005
11287
1002
}
  0
ENDBLK
  5
11296
  8
0
  0
BLOCK
  8
0
  2
FSSSSSSSSS
 70
     0
 10
0.0
 20
0.0
 30
0.0
  3
FSSSSSSSSS
  1

  0
LINE
  5
1129A
  8
0
  6
CONTINUOUS
 62
     3
 10
274.2758838229912
 20
238.2773638989618
 30
0.0
 11
277.47008812276607
 21
234.72869906079131
 31
0.0
1001
ACAD
1000
ASC_BOUNDS
1002
{
1070
    19
1005
1129C
1002
}
  0
LINE
  5
1129B
  8
0
  6
CONTINUOUS
 62
     7
 10
273.93662912658118
 20
240.4007023119627
 30
0.0
 11
276.78957405693222
 21
240.40070231196279
 31
0.0
1001
ACAD
1000
ASC_BOUNDS
1002
{
1070
    19
1005
1129C
1002
}
  0
INSERT
  5
1129C
  8
0
  6
CONTINUOUS
 62
     2
  2
*X36
 10
0.0
 20
0.0
 30
0.0
1001
ACAD
1000
HATCH
1002
{
1070
    19
1000
ANSI31
1040
20.0
1040
1.5707963267948959
1000
ASC_BOUNDS
1070
     3
1070
     1
1070
     7
1005
112B8
1005
112A0
1005
112BB
1005
112BA
1005
1129F
1005
112C2
1005
112BD
1070
     1
1070
    11
1005
112C0
1005
112BF
1005
112BE
1005
112C2
1005
112BA
1005
1129F
1005
112A9
1005
112B6
1005
112B5
1005
112B4
1005
1129E
1070
     1
1070
    18
1005
112BA
1005
112BB
1005
112A0
1005
112A7
1005
112A2
1005
112A6
1005
1129A
1005
1129D
1005
1129B
1005
112AE
1005
112AC
1005
112AD
1005
112AB
1005
112B0
1005
112B1
1005
112B2
1005
112A9
1005
1129F
1000
ASC_SEEDPOINT
1011
296.39219504062089
1021
-1.1413573603328148E+013
1031
-26561478664.204453
1021
237.93475488870939
1031
0.0
1000
R14_HATCH_DATA
1000
1129C
1011
1.0
1021
-1.1413573603328148E+013
1031
-26561478664.204453
1021
0.0
1031
0.0
1011
0.0
1021
-1.1413573603328148E+013
1031
-26561478664.204453
1021
1.0
1031
0.0
1011
0.0
1021
-1.1413573603328148E+013
1031
-26561478664.204453
1021
0.0
1031
1.0
1040
0.0
1010
0.0
1020
0.0
1030
1.0
1000
ANSI31
1070
     0
1070
     1
1071
        3
1071
        7
1070
     1
1070
     1
1071
       19
1040
292.60008583358461
1040
240.40070231196279
1040
0.2679491924310489
1040
291.56085534904349
1040
239.80070231196299
1040
0.0
1040
291.21444518752918
1040
239.2007023119626
1040
-0.267949192431224
1040
290.69482994525822
1040
238.90070231196279
1040
0.0
1040
278.69482994525879
1040
238.90070231196279
1040
-0.2679491924312763
1040
278.17521470298772
1040
239.2007023119626
1040
0.0
1040
277.82880454147357
1040
239.80070231196291
1040
0.2679491924311137
1040
276.78957405693222
1040
240.40070231196279
1040
0.0
1040
273.93662912658129
1040
240.4007023119627
1040
0.0
1040
274.27588382299109
1040
238.27736389896191
1040
0.0
1040
277.47008812276607
1040
234.7286990607914
1040
0.0
1040
285.59947521626532
1040
232.49787980934741
1040
0.0
1040
299.1502792699618
1040
232.05648413368749
1040
0.0
1040
306.82059546645712
1040
232.49787980934741
1040
0.0
1040
312.28578891394972
1040
234.1651628881441
1040
0.0
1040
311.93810306489462
1040
234.64582957282519
1040
-0.4441191269305316
1040
311.57527632865498
1040
234.72304405228789
1040
-0.5709145023684346
1040
302.73290252299159
1040
239.94296811502659
1040
-0.0192153241715212
1040
302.75050004245759
1040
240.40070231196279
1040
0.0
1071
       18
1005
1129F
1005
112A9
1005
112B2
1005
112B1
1005
112B0
1005
112AB
1005
112AD
1005
112AC
1005
112AE
1005
1129B
1005
1129D
1005
1129A
1005
112A6
1005
112A2
1005
112A7
1005
112A0
1005
112BB
1005
112BA
1071
        7
1070
     1
1070
     1
1071
       15
1040
305.69482994525822
1040
238.90070231196279
1040
-0.2679491924310224
1040
305.17521470298772
1040
239.2007023119626
1040
0.0
1040
304.82880454147369
1040
239.80070231196291
1040
0.2679491924310984
1040
303.78957405693251
1040
240.40070231196279
1040
0.0
1040
302.75050004245759
1040
240.40070231196279
1040
0.0192153241715212
1040
302.73290252299159
1040
239.94296811502659
1040
0.5709145023684346
1040
311.57527632865498
1040
234.72304405228789
1040
-0.1320611831095684
1040
311.54158154947447
1040
234.84839177443001
1040
-0.7501745522296774
1040
312.00244158053653
1040
234.9826975721474
1040
0.2507365363306379
1040
314.65675736752581
1040
239.94296811502659
1040
0.0192153241715104
1040
314.63915984805982
1040
240.40070231196259
1040
0.0
1040
313.60008583358439
1040
240.40070231196259
1040
0.2679491924310489
1040
312.56085534904332
1040
239.80070231196279
1040
0.0
1040
312.21444518752918
1040
239.2007023119626
1040
-0.267949192431224
1040
311.69482994525822
1040
238.90070231196279
1040
0.0
1071
       11
1005
1129E
1005
112B4
1005
112B5
1005
112B6
1005
112A9
1005
1129F
1005
112BA
1005
112C2
1005
112BE
1005
112BF
1005
112C0
1071
        7
1070
     1
1070
     1
1071
        9
1040
317.1435411669986
1040
237.87029533306051
1040
0.0
1040
317.71885254480839
1040
240.4007023119625
1040
0.0
1040
314.63915984805982
1040
240.40070231196259
1040
-0.0192153241715104
1040
314.65675736752581
1040
239.94296811502659
1040
-0.2507365363306379
1040
312.00244158053653
1040
234.9826975721474
1040
-0.1427431609333959
1040
312.04158154947447
1040
234.84839177443001
1040
-0.2406337495410551
1040
311.93810306489462
1040
234.64582957282519
1040
0.0
1040
312.28578891394972
1040
234.16516288814421
1040
0.0
1040
314.53032295737921
1040
234.84990967091551
1040
0.0
1071
        7
1005
112BD
1005
112C2
1005
1129F
1005
112BA
1005
112BB
1005
112A0
1005
112B8
1070
     0
1070
     1
1040
1.5707963267948959
1040
20.0
1070
     0
1070
     1
1040
2.3561944901923439
1040
-19.508331360138531
1040
45.253856048699312
1040
-1.767766952966368
1040
-1.767766952966368
1070
     0
1040
0.0730439750120502
1071
        3
1040
296.39219504062089
1040
237.93475488870939
1040
0.0
1040
307.22815144746778
1040
236.98979916658649
1040
0.0
1040
315.66419732595477
1040
237.7893766239373
1040
0.0
1002
}
  0
LINE
  5
1129D
  8
0
  6
CONTINUOUS
 62
     3
 10
274.2758838229912
 20
238.2773638989618
 30
0.0
 11
273.93662912658118
 21
240.4007023119627
 31
0.0
1001
ACAD
1000
ASC_BOUNDS
1002
{
1070
    19
1005
1129C
1002
}
  0
LINE
  5
1129E
  8
0
  6
CONTINUOUS
 10
305.69482994525822
 20
238.90070231196279
 30
0.0
 11
311.69482994525822
 21
238.90070231196279
 31
0.0
1001
ACAD
1000
ASC_BOUNDS
1002
{
1070
    19
1005
1129C
1002
}
  0
CIRCLE
  5
1129F
  8
0
  6
PHANTOM2
 62
     4
 10
308.69482994525868
 20
239.94296811502659
 30
0.0
 40
5.9619274222670748
1001
ACAD
1000
ASC_BOUNDS
1002
{
1070
    19
1005
1129C
1005
1129C
1005
1129C
1002
}
  0
LINE
  5
112A0
  8
0
  6
CONTINUOUS
 62
     3
 10
306.82059546645701
 20
232.4978798093473
 30
0.0
 11
314.53032295737921
 21
234.84990967091539
 31
0.0
1001
ACAD
1000
ASC_BOUNDS
1002
{
1070
    19
1005
1129C
1005
1129C
1002
}
  0
DIMENSION
  5
112A1
  8
0
  6
CONTINUOUS
 62
     7
  2
*D6
 10
311.69482994525879
 20
247.05646304151651
 30
0.0
 11
308.69482994525879
 21
249.5567583171071
 31
0.0
  1
2
  3
KSM
 13
305.69482994525879
 23
241.8928634861127
 33
0.0
 14
311.69482994525879
 24
241.8928634861127
 34
0.0
1001
ACAD
1000
DSTYLE
1002
{
1070
    47
1040
0.1
1070
    71
1070
     0
1070
    48
1040
-0.02
1070
   146
1040
0.7
1070
   272
1070
     3
1070
   271
1070
     3
1070
    41
1040
2.5
1002
}
  0
LINE
  5
112A2
  8
0
  6
CONTINUOUS
 62
     3
 10
285.5994752162656
 20
232.4978798093473
 30
0.0
 11
299.15027926996208
 21
232.05648413368749
 31
0.0
1001
ACAD
1000
ASC_BOUNDS
1002
{
1070
    19
1005
1129C
1002
}
  0
TEXT
  5
112A3
  8
0
  6
CONTINUOUS
 62
     7
 10
287.11264274960649
 20
223.37482782785449
 30
0.0
 40
3.0
  1
DETAIL X
  0
LINE
  5
112A4
  8
0
  6
CONTINUOUS
 62
     3
 10
287.09069088413298
 20
222.71195592527491
 30
0.0
 11
303.88397166083951
 21
222.71195592527491
 31
0.0
  0
LINE
  5
112A5
  8
0
  6
CONTINUOUS
 62
     7
 10
287.09069088413298
 20
221.71195592527491
 30
0.0
 11
303.88397166083951
 21
221.71195592527491
 31
0.0
  0
LINE
  5
112A6
  8
0
  6
CONTINUOUS
 62
     3
 10
277.47008812276607
 20
234.72869906079131
 30
0.0
 11
285.5994752162656
 21
232.4978798093473
 31
0.0
1001
ACAD
1000
ASC_BOUNDS
1002
{
1070
    19
1005
1129C
1002
}
  0
LINE
  5
112A7
  8
0
  6
CONTINUOUS
 62
     3
 10
299.15027926996208
 20
232.05648413368749
 30
0.0
 11
306.82059546645701
 21
232.4978798093473
 31
0.0
1001
ACAD
1000
ASC_BOUNDS
1002
{
1070
    19
1005
1129C
1002
}
  0
DIMENSION
  5
112A8
  8
0
  6
CONTINUOUS
 62
     7
  2
*D7
 10
305.69482994525879
 20
247.05646304151651
 30
0.0
 11
298.19482994525879
 21
249.55646304151651
 31
0.0
  1
5
  3
KSM
 13
290.69482994525879
 23
241.8928634861127
 33
0.0
 14
305.69482994525879
 24
241.8928634861127
 34
0.0
1001
ACAD
1000
DSTYLE
1002
{
1070
    47
1040
0.1
1070
    71
1070
     0
1070
    48
1040
-0.02
1070
   146
1040
0.7
1070
   272
1070
     3
1070
   271
1070
     3
1070
    41
1040
2.5
1002
}
  0
LINE
  5
112A9
  8
0
  6
CONTINUOUS
 62
     7
 10
292.60008583358461
 20
240.40070231196279
 30
0.0
 11
303.78957405693251
 21
240.40070231196279
 31
0.0
1001
ACAD
1000
ASC_BOUNDS
1002
{
1070
    19
1005
1129C
1005
1129C
1002
}
  0
DIMENSION
  5
112AA
  8
0
  6
CONTINUOUS
  2
*D8
 10
290.69482994525879
 20
247.05646304151651
 30
0.0
 11
284.69482994525879
 21
249.1564630415165
 31
0.0
  1
4
  3
ISO-25
 13
278.69482994525879
 23
241.21061168222951
 33
0.0
 14
290.69482994525879
 24
241.21061168222951
 34
0.0
1001
ACAD
1000
DSTYLE
1002
{
1070
   287
1070
     2
1070
    42
1040
0.6
1070
    43
1040
1.0
1070
    44
1040
1.0
1070
    47
1040
0.1
1070
    48
1040
0.1
1070
    73
1070
     0
1070
   140
1040
3.0
1070
   141
1040
-0.5
1070
   146
1040
0.7
1070
   147
1040
0.6
1070
   178
1070
     3
1070
   271
1070
     8
1070
   272
1070
     8
1070
   275
1070
     1
1070
   283
1070
     0
1070
   284
1070
     8
1070
   289
1070
     2
1002
}
  0
LINE
  5
112AB
  8
0
  6
CONTINUOUS
 10
278.69482994525879
 20
238.90070231196279
 30
0.0
 11
290.69482994525822
 21
238.90070231196279
 31
0.0
1001
ACAD
1000
ASC_BOUNDS
1002
{
1070
    19
1005
1129C
1002
}
  0
LINE
  5
112AC
  8
0
  6
CONTINUOUS
 62
     7
 10
278.17521470298772
 20
239.2007023119626
 30
0.0
 11
277.82880454147357
 21
239.80070231196291
 31
0.0
1001
ACAD
1000
ASC_BOUNDS
1002
{
1070
    19
1005
1129C
1002
}
  0
ARC
  5
112AD
  8
0
  6
CONTINUOUS
 62
     7
 10
278.69482994525828
 20
239.50070231196281
 30
0.0
 40
0.6000000000000001
 50
209.9999999999894
 51
270.0
1001
ACAD
1000
ASC_BOUNDS
1002
{
1070
    19
1005
1129C
1002
}
  0
ARC
  5
112AE
  8
0
  6
CONTINUOUS
 62
     7
 10
276.78957405693228
 20
239.2007023119628
 30
0.0
 40
1.1999999999999991
 50
30.000000000003048
 51
90.0
1001
ACAD
1000
ASC_BOUNDS
1002
{
1070
    19
1005
1129C
1002
}
  0
LINE
  5
112AF
  8
0
  6
CENTER
 62
     2
 10
278.69482994525879
 20
241.21061168222951
 30
0.0
 11
278.69482994525879
 21
235.9724864888631
 31
0.0
  0
ARC
  5
112B0
  8
0
  6
CONTINUOUS
 62
     7
 10
290.69482994525828
 20
239.50070231196281
 30
0.0
 40
0.6000000000000001
 50
270.0
 51
329.99999999999687
1001
ACAD
1000
ASC_BOUNDS
1002
{
1070
    19
1005
1129C
1002
}
  0
LINE
  5
112B1
  8
0
  6
CONTINUOUS
 62
     7
 10
291.21444518752918
 20
239.2007023119626
 30
0.0
 11
291.56085534904349
 21
239.80070231196299
 31
0.0
1001
ACAD
1000
ASC_BOUNDS
1002
{
1070
    19
1005
1129C
1002
}
  0
ARC
  5
112B2
  8
0
  6
CONTINUOUS
 62
     7
 10
292.60008583358461
 20
239.2007023119628
 30
0.0
 40
1.1999999999999991
 50
90.0
 51
149.99999999998531
1001
ACAD
1000
ASC_BOUNDS
1002
{
1070
    19
1005
1129C
1002
}
  0
LINE
  5
112B3
  8
0
  6
CENTER
 62
     2
 10
290.69482994525879
 20
241.21061168222951
 30
0.0
 11
290.69482994525879
 21
235.9724864888631
 31
0.0
  0
ARC
  5
112B4
  8
0
  6
CONTINUOUS
 62
     7
 10
305.69482994525828
 20
239.50070231196281
 30
0.0
 40
0.6000000000000001
 50
209.9999999999894
 51
270.0
1001
ACAD
1000
ASC_BOUNDS
1002
{
1070
    19
1005
1129C
1002
}
  0
LINE
  5
112B5
  8
0
  6
CONTINUOUS
 62
     7
 10
305.17521470298772
 20
239.2007023119626
 30
0.0
 11
304.82880454147369
 21
239.80070231196291
 31
0.0
1001
ACAD
1000
ASC_BOUNDS
1002
{
1070
    19
1005
1129C
1002
}
  0
ARC
  5
112B6
  8
0
  6
CONTINUOUS
 62
     7
 10
303.78957405693251
 20
239.2007023119628
 30
0.0
 40
1.1999999999999991
 50
30.00000000000248
 51
90.0
1001
ACAD
1000
ASC_BOUNDS
1002
{
1070
    19
1005
1129C
1002
}
  0
LINE
  5
112B7
  8
0
  6
CENTER
 62
     2
 10
305.69482994525879
 20
241.21061168222951
 30
0.0
 11
305.69482994525879
 21
235.9724864888631
 31
0.0
  0
LINE
  5
112B8
  8
0
  6
CONTINUOUS
 62
     3
 10
314.53032295737921
 20
234.84990967091539
 30
0.0
 11
317.1435411669986
 21
237.8702953330606
 31
0.0
1001
ACAD
1000
ASC_BOUNDS
1002
{
1070
    19
1005
1129C
1002
}
  0
LINE
  5
112B9
  8
0
  6
CONTINUOUS
 62
     2
 10
317.86354928337062
 20
226.45405358645331
 30
0.0
 11
322.68454816299197
 21
226.45405358645331
 31
0.0
  0
POLYLINE
  5
112BA
  8
0
  6
CONTINUOUS
 62
     7
 66
     1
 10
0.0
 20
0.0
 30
0.0
 70
     1
 40
0.5
 41
0.5
1001
ACAD
1000
ASC_BOUNDS
1002
{
1070
    19
1005
1129C
1005
1129C
1005
1129C
1002
}
  0
VERTEX
  5
1C4D9
  8
0
  6
CONTINUOUS
 62
     7
 10
311.54158154947447
 20
234.84839177443001
 30
0.0
 42
-1.0
  0
VERTEX
  5
1C4DA
  8
0
  6
CONTINUOUS
 62
     7
 10
312.04158154947447
 20
234.84839177443001
 30
0.0
 42
-1.0
  0
SEQEND
  5
1C4DB
  8
0
  6
CONTINUOUS
 62
     7
  0
LINE
  5
112BB
  8
0
  6
CONTINUOUS
 62
     2
 10
311.79158154947447
 20
234.84839177443001
 30
0.0
 11
317.86354928337062
 21
226.45405358645331
 31
0.0
1001
ACAD
1000
ASC_BOUNDS
1002
{
1070
    19
1005
1129C
1005
1129C
1002
}
  0
TEXT
  5
112BC
  8
0
  6
CONTINUOUS
 62
     3
 10
318.69662228849609
 20
227.0118776214423
 30
0.0
 40
3.0
  1
Y
  0
LINE
  5
112BD
  8
0
  6
CONTINUOUS
 62
     3
 10
317.1435411669986
 20
237.8702953330606
 30
0.0
 11
317.71885254480839
 21
240.4007023119627
 31
0.0
1001
ACAD
1000
ASC_BOUNDS
1002
{
1070
    19
1005
1129C
1002
}
  0
ARC
  5
112BE
  8
0
  6
CONTINUOUS
 62
     7
 10
313.60008583358439
 20
239.2007023119626
 30
0.0
 40
1.1999999999999991
 50
90.0
 51
149.99999999998531
1001
ACAD
1000
ASC_BOUNDS
1002
{
1070
    19
1005
1129C
1002
}
  0
LINE
  5
112BF
  8
0
  6
CONTINUOUS
 62
     7
 10
312.21444518752918
 20
239.2007023119626
 30
0.0
 11
312.56085534904332
 21
239.80070231196279
 31
0.0
1001
ACAD
1000
ASC_BOUNDS
1002
{
1070
    19
1005
1129C
1002
}
  0
ARC
  5
112C0
  8
0
  6
CONTINUOUS
 62
     7
 10
311.69482994525828
 20
239.50070231196281
 30
0.0
 40
0.6000000000000001
 50
270.0
 51
329.99999999999687
1001
ACAD
1000
ASC_BOUNDS
1002
{
1070
    19
1005
1129C
1002
}
  0
LINE
  5
112C1
  8
0
  6
CENTER
 62
     2
 10
311.69482994525879
 20
241.21061168222951
 30
0.0
 11
311.69482994525879
 21
235.9724864888631
 31
0.0
  0
LINE
  5
112C2
  8
0
  6
CONTINUOUS
 62
     7
 10
313.60008583358439
 20
240.40070231196259
 30
0.0
 11
317.71885254480839
 21
240.4007023119625
 31
0.0
1001
ACAD
1000
ASC_BOUNDS
1002
{
1070
    19
1005
1129C
1005
1129C
1002
}
  0
ENDBLK
  5
112C3
  8
0
  0
BLOCK
  8
0
  2
_CLOSEDBLANK
 70
     0
 10
0.0
 20
0.0
 30
0.0
  3
_CLOSEDBLANK
  1

  0
LINE
  5
112C6
  8
0
  6
BYBLOCK
 62
     0
 10
-1.0
 20
0.1666666666666666
 30
0.0
 11
0.0
 21
0.0
 31
0.0
  0
LINE
  5
112C7
  8
0
  6
BYBLOCK
 62
     0
 10
0.0
 20
0.0
 30
0.0
 11
-1.0
 21
-0.1666666666666666
 31
0.0
  0
LINE
  5
112C8
  8
0
  6
BYBLOCK
 62
     0
 10
-1.0
 20
0.1666666666666666
 30
0.0
 11
-1.0
 21
-0.1666666666666666
 31
0.0
  0
ENDBLK
  5
112C9
  8
0
  0
BLOCK
  8
0
  2
SDFGGGG
 70
     0
 10
0.0
 20
0.0
 30
0.0
  3
SDFGGGG
  1

  0
LINE
  5
1151D
  8
0
  6
CENTER
 62
     6
 10
288.10293417535848
 20
52.48929301891269
 30
0.0
 11
293.4419350880122
 21
60.114176530314353
 31
0.0
  0
LINE
  5
1151E
  8
0
  6
CONTINUOUS
 62
     3
 10
290.71262853103809
 20
56.281053521290538
 30
0.0
 11
286.83654860526741
 21
61.816958663374237
 31
0.0
  0
INSERT
  5
1151F
  8
0
  6
CONTINUOUS
 62
     7
  2
*X37
 10
0.0
 20
0.0
 30
0.0
1001
ACAD
1000
HATCH
1002
{
1070
    19
1000
ANSI31
1040
0.5
1040
23.79688367253441
1000
R14_HATCH_DATA
1000
1151F
1011
1.0
1021
-1.1413573603328148E+013
1031
-26561478664.204453
1021
0.0
1031
0.0
1011
0.0
1021
-1.1413573603328148E+013
1031
-26561478664.204453
1021
1.0
1031
0.0
1011
0.0
1021
-1.1413573603328148E+013
1031
-26561478664.204453
1021
0.0
1031
1.0
1040
0.0
1010
0.0
1020
0.0
1030
1.0
1000
ANSI31
1070
     0
1070
     0
1071
        1
1071
        7
1070
     0
1070
     1
1071
        3
1040
285.51075820717671
1040
59.923632702976121
1040
290.71262853103809
1040
56.281053521290431
1040
284.18496780908572
1040
58.030306742578041
1071
        0
1070
     0
1070
     1
1040
23.79688367253441
1040
0.5
1070
     0
1070
     1
1040
5.6119142235700412
1040
-126.39593639476939
1040
1011.275042551952
1040
-0.0388738617494717
1040
-0.0489394817369674
1070
     0
1040
0.0067328972234235
1071
        1
1040
188.25168778265399
1040
193.8198621820531
1040
0.0
1002
}
  0
LINE
  5
11520
  8
0
  6
CONTINUOUS
 62
     3
 10
283.16624202923998
 20
61.565366404352993
 30
0.0
 11
290.71262853103809
 21
56.281053521290538
 31
0.0
  0
LINE
  5
11521
  8
0
  6
CONTINUOUS
 62
     3
 10
290.71262853103809
 20
56.281053521290538
 30
0.0
 11
284.18496780908538
 21
58.030306742578077
 31
0.0
  0
LINE
  5
11522
  8
0
  6
CONTINUOUS
 62
     3
 10
284.18496780908538
 20
58.030306742578077
 30
0.0
 11
286.83654860526741
 21
61.816958663374237
 31
0.0
  0
ENDBLK
  5
11523
  8
0
  0
BLOCK
  8
0
  2
DFGDFG
 70
     0
 10
0.0
 20
0.0
 30
0.0
  3
DFGDFG
  1

  0
LINE
  5
17188
  8
0
  6
PHANTOM
 62
     4
 10
515.12727105287081
 20
144.25623312232949
 30
0.0
 11
525.6272710528707
 21
144.25623312232949
 31
0.0
  0
LINE
  5
17189
  8
0
  6
PHANTOM
 62
     4
 10
515.62727105287081
 20
144.75623312232949
 30
0.0
 11
525.12727105287081
 21
144.75623312232949
 31
0.0
  0
LINE
  5
1718A
  8
0
  6
PHANTOM
 62
     4
 10
515.62727105287081
 20
144.75623312232949
 30
0.0
 11
515.62727105287081
 21
136.75623312232949
 31
0.0
  0
LINE
  5
1718B
  8
0
  6
PHANTOM
 62
     4
 10
514.62727105287081
 20
143.75623312232949
 30
0.0
 11
514.62727105287081
 21
136.75623312232949
 31
0.0
  0
LINE
  5
1718C
  8
0
  6
PHANTOM
 62
     4
 10
515.62727105287081
 20
144.75623312232949
 30
0.0
 11
514.62727105287081
 21
143.75623312232949
 31
0.0
  0
LINE
  5
1718D
  8
0
  6
PHANTOM
 62
     4
 10
529.42727105287076
 20
144.75623312232949
 30
0.0
 11
529.42727105287076
 21
136.75623312232949
 31
0.0
  0
LINE
  5
1718E
  8
0
  6
PHANTOM
 62
     4
 10
529.6272710528707
 20
144.5562331223295
 30
0.0
 11
529.6272710528707
 21
136.75623312232949
 31
0.0
  0
LINE
  5
1718F
  8
0
  6
PHANTOM
 62
     4
 10
529.42727105287076
 20
144.75623312232949
 30
0.0
 11
529.6272710528707
 21
144.5562331223295
 31
0.0
  0
LINE
  5
17190
  8
0
  6
PHANTOM
 62
     4
 10
527.62727105287081
 20
144.75623312232949
 30
0.0
 11
527.62727105287081
 21
136.75623312232949
 31
0.0
  0
LINE
  5
17191
  8
0
  6
PHANTOM
 62
     4
 10
525.87727105287081
 20
144.00623312232949
 30
0.0
 11
527.62727105287081
 21
144.00623312232949
 31
0.0
  0
LINE
  5
17192
  8
0
  6
PHANTOM
 62
     4
 10
525.87727105287081
 20
136.75623312232949
 30
0.0
 11
525.87727105287081
 21
144.00623312232949
 31
0.0
  0
LINE
  5
17193
  8
0
  6
PHANTOM
 62
     4
 10
525.12727105287081
 20
144.75623312232949
 30
0.0
 11
525.12727105287081
 21
136.75623312232949
 31
0.0
  0
LINE
  5
17194
  8
0
  6
PHANTOM
 62
     4
 10
525.12727105287081
 20
144.75623312232949
 30
0.0
 11
525.87727105287081
 21
144.00623312232949
 31
0.0
  0
LINE
  5
17195
  8
0
  6
PHANTOM
 62
     4
 10
527.62727105287081
 20
144.75623312232949
 30
0.0
 11
529.42727105287076
 21
144.75623312232949
 31
0.0
  0
ENDBLK
  5
17196
  8
0
  0
BLOCK
  8
0
  2
DRGFDG
 70
     0
 10
0.0
 20
0.0
 30
0.0
  3
DRGFDG
  1

  0
LINE
  5
1A0D3
  8
0
  6
CONTINUOUS
 62
     4
 10
588.86968125608973
 20
-247.61534771967851
 30
0.0
 11
587.36968125608939
 21
-246.74932231589449
 31
0.0
  0
LINE
  5
1A0D4
  8
0
  6
CONTINUOUS
 62
     4
 10
588.86968125608985
 20
-251.11534771967851
 30
0.0
 11
587.36968125608973
 21
-251.9813731234633
 31
0.0
  0
LINE
  5
1A0D5
  8
0
  6
CONTINUOUS
 62
     4
 10
566.36968125609008
 20
-253.36534771967919
 30
0.0
 11
565.86968125608985
 21
-252.86534771967919
 31
0.0
  0
LINE
  5
1A0D6
  8
0
  6
CONTINUOUS
 62
     4
 10
565.86968125608973
 20
-245.86534771967899
 30
0.0
 11
566.36968125609008
 21
-245.36534771967951
 31
0.0
  0
LINE
  5
1A0D7
  8
0
  6
CONTINUOUS
 62
     4
 10
562.86968125608996
 20
-254.36534771967899
 30
0.0
 11
553.86968125608985
 21
-254.36534771967899
 31
0.0
  0
LINE
  5
1A0D8
  8
0
  6
CONTINUOUS
 62
     4
 10
563.68168125609031
 20
-253.5533477196789
 30
0.0
 11
553.05768125608984
 21
-253.5533477196789
 31
0.0
  0
LINE
  5
1A0D9
  8
0
  6
CONTINUOUS
 62
     4
 10
562.86968125609008
 20
-244.36534771967919
 30
0.0
 11
553.86968125609042
 21
-244.36534771967939
 31
0.0
  0
LINE
  5
1A0DA
  8
0
  6
CONTINUOUS
 62
     4
 10
553.05768125609052
 20
-245.17734771967889
 30
0.0
 11
563.68168125609031
 21
-245.17734771967929
 31
0.0
  0
LINE
  5
1A0DB
  8
0
  6
CONTINUOUS
 62
     4
 10
553.86968125608985
 20
-254.36534771967899
 30
0.0
 11
552.86968125609019
 21
-253.36534771967919
 31
0.0
  0
LINE
  5
1A0DC
  8
0
  6
CONTINUOUS
 62
     4
 10
549.36968125608985
 20
-254.61534771967919
 30
0.0
 11
548.86968125608985
 21
-254.11534771967879
 31
0.0
  0
LINE
  5
1A0DD
  8
0
  6
CONTINUOUS
 62
     4
 10
550.86968125609008
 20
-254.61534771967919
 30
0.0
 11
549.36968125608985
 21
-254.61534771967919
 31
0.0
  0
LINE
  5
1A0DE
  8
0
  6
CONTINUOUS
 62
     4
 10
552.86968125609019
 20
-253.36534771967919
 30
0.0
 11
550.86968125608985
 21
-253.36534771967899
 31
0.0
  0
LINE
  5
1A0DF
  8
0
  6
CONTINUOUS
 62
     4
 10
548.8696812560903
 20
-244.61534771967899
 30
0.0
 11
549.36968125609019
 21
-244.11534771967899
 31
0.0
  0
POINT
  5
1A0E0
  8
DEFPOINTS
  6
BYBLOCK
 62
     4
 10
548.8696812560903
 20
-244.61534771967899
 30
0.0
  0
LINE
  5
1A0E1
  8
0
  6
CONTINUOUS
 62
     4
 10
548.86968125608985
 20
-254.11534771967879
 30
0.0
 11
548.8696812560903
 21
-244.61534771967899
 31
0.0
  0
LINE
  5
1A0E2
  8
0
  6
CONTINUOUS
 62
     4
 10
549.36968125608985
 20
-254.61534771967919
 30
0.0
 11
549.36968125609019
 21
-244.11534771967899
 31
0.0
  0
LINE
  5
1A0E3
  8
0
  6
CONTINUOUS
 62
     4
 10
553.86968125609042
 20
-244.36534771967939
 30
0.0
 11
552.8696812560903
 21
-245.36534771967951
 31
0.0
  0
POINT
  5
1A0E4
  8
DEFPOINTS
  6
BYBLOCK
 62
     4
 10
550.86968125609042
 20
-244.11534771967939
 30
0.0
  0
POINT
  5
1A0E5
  8
DEFPOINTS
  6
BYBLOCK
 62
     4
 10
550.86968125609042
 20
-244.11534771967939
 30
0.0
  0
LINE
  5
1A0E6
  8
0
  6
CONTINUOUS
 62
     4
 10
550.86968125609042
 20
-244.11534771967939
 30
0.0
 11
549.36968125609019
 21
-244.11534771967899
 31
0.0
  0
LINE
  5
1A0E7
  8
0
  6
CONTINUOUS
 62
     4
 10
552.86968125608985
 20
-245.36534771967899
 30
0.0
 11
550.86968125608985
 21
-245.36534771967871
 31
0.0
  0
LINE
  5
1A0E8
  8
0
  6
CONTINUOUS
 62
     4
 10
552.86968125609019
 20
-253.36534771967919
 30
0.0
 11
552.8696812560903
 21
-245.36534771967951
 31
0.0
  0
LINE
  5
1A0E9
  8
0
  6
CONTINUOUS
 62
     4
 10
553.86968125608985
 20
-254.36534771967899
 30
0.0
 11
553.86968125609008
 21
-244.3653477196801
 31
0.0
  0
LINE
  5
1A0EA
  8
0
  6
CONTINUOUS
 62
     4
 10
550.86968125609008
 20
-254.61534771967919
 30
0.0
 11
550.86968125609008
 21
-244.11534771967899
 31
0.0
  0
LINE
  5
1A0EB
  8
0
  6
CONTINUOUS
 62
     4
 10
563.86968125609008
 20
-253.36534771967919
 30
0.0
 11
562.86968125608996
 21
-254.36534771967899
 31
0.0
  0
LINE
  5
1A0EC
  8
0
  6
CONTINUOUS
 62
     4
 10
565.36968125609019
 20
-253.36534771967951
 30
0.0
 11
563.86968125609008
 21
-253.36534771967919
 31
0.0
  0
LINE
  5
1A0ED
  8
0
  6
CONTINUOUS
 62
     4
 10
565.36968125609019
 20
-253.36534771967951
 30
0.0
 11
565.86968125608985
 21
-252.86534771967919
 31
0.0
  0
LINE
  5
1A0EE
  8
0
  6
CONTINUOUS
 62
     4
 10
562.86968125609008
 20
-244.36534771967919
 30
0.0
 11
563.86968125608985
 21
-245.36534771967899
 31
0.0
  0
LINE
  5
1A0EF
  8
0
  6
CONTINUOUS
 62
     4
 10
565.36968125609019
 20
-245.36534771967919
 30
0.0
 11
563.86968125608985
 21
-245.36534771967899
 31
0.0
  0
LINE
  5
1A0F0
  8
0
  6
CONTINUOUS
 62
     4
 10
565.36968125609019
 20
-245.36534771967919
 30
0.0
 11
565.86968125608973
 21
-245.86534771967899
 31
0.0
  0
LINE
  5
1A0F1
  8
0
  6
CONTINUOUS
 62
     4
 10
563.86968125609008
 20
-253.36534771967919
 30
0.0
 11
563.86968125608985
 21
-245.36534771967899
 31
0.0
  0
LINE
  5
1A0F2
  8
0
  6
CONTINUOUS
 62
     4
 10
565.86968125608985
 20
-252.86534771967919
 30
0.0
 11
565.86968125608973
 21
-245.86534771967899
 31
0.0
  0
LINE
  5
1A0F3
  8
0
  6
CONTINUOUS
 62
     4
 10
565.86968125608985
 20
-252.86534771967919
 30
0.0
 11
565.86968125608973
 21
-245.86534771967899
 31
0.0
  0
LINE
  5
1A0F4
  8
0
  6
CONTINUOUS
 62
     4
 10
565.36968125609019
 20
-253.36534771967951
 30
0.0
 11
565.36968125609019
 21
-245.36534771967919
 31
0.0
  0
LINE
  5
1A0F5
  8
0
  6
CONTINUOUS
 62
     4
 10
562.86968125609042
 20
-254.36534771967919
 30
0.0
 11
562.86968125609008
 21
-244.36534771967919
 31
0.0
  0
LINE
  5
1A0F6
  8
0
  6
CONTINUOUS
 62
     4
 10
580.36968125608985
 20
-253.36534771967879
 30
0.0
 11
566.36968125609008
 21
-253.36534771967919
 31
0.0
  0
LINE
  5
1A0F7
  8
0
  6
CONTINUOUS
 62
     4
 10
580.36968125609008
 20
-245.36534771967951
 30
0.0
 11
566.36968125609008
 21
-245.36534771967951
 31
0.0
  0
LINE
  5
1A0F8
  8
0
  6
CONTINUOUS
 62
     4
 10
566.36968125609008
 20
-253.36534771967919
 30
0.0
 11
566.36968125609008
 21
-245.36534771967951
 31
0.0
  0
LINE
  5
1A0F9
  8
0
  6
CONTINUOUS
 62
     4
 10
580.86968125608951
 20
-245.44034771967881
 30
0.0
 11
585.36968125608951
 21
-245.44034771967881
 31
0.0
  0
LINE
  5
1A0FA
  8
0
  6
CONTINUOUS
 62
     4
 10
580.36968125609008
 20
-245.36534771967951
 30
0.0
 11
580.86968125608973
 21
-245.86534771967919
 31
0.0
  0
LINE
  5
1A0FB
  8
0
  6
CONTINUOUS
 62
     4
 10
586.94468125609001
 20
-245.3153477196789
 30
0.0
 11
587.36968125608928
 21
-245.74034771967851
 31
0.0
  0
LINE
  5
1A0FC
  8
0
  6
CONTINUOUS
 62
     4
 10
587.36968125608928
 20
-245.74034771967851
 30
0.0
 11
587.36968125608996
 21
-249.36534771967871
 31
0.0
  0
LINE
  5
1A0FD
  8
0
  6
CONTINUOUS
 62
     4
 10
585.36968125608951
 20
-245.44034771967881
 30
0.0
 11
585.36968125608951
 21
-249.36534771967871
 31
0.0
  0
LINE
  5
1A0FE
  8
0
  6
CONTINUOUS
 62
     4
 10
580.86968125608973
 20
-253.29034771967889
 30
0.0
 11
585.36968125608973
 21
-253.29034771967869
 31
0.0
  0
LINE
  5
1A0FF
  8
0
  6
CONTINUOUS
 62
     4
 10
580.36968125608985
 20
-253.36534771967879
 30
0.0
 11
580.86968125608973
 21
-252.86534771967899
 31
0.0
  0
LINE
  5
1A100
  8
0
  6
CONTINUOUS
 62
     4
 10
587.36968125608973
 20
-252.99034771967899
 30
0.0
 11
587.36968125608996
 21
-249.36534771967871
 31
0.0
  0
LINE
  5
1A101
  8
0
  6
CONTINUOUS
 62
     4
 10
580.86968125608973
 20
-252.86534771967899
 30
0.0
 11
580.86968125608973
 21
-245.86534771967919
 31
0.0
  0
LINE
  5
1A102
  8
0
  6
CONTINUOUS
 62
     4
 10
580.36968125608985
 20
-253.36534771967879
 30
0.0
 11
580.36968125609008
 21
-245.36534771967951
 31
0.0
  0
LINE
  5
1A103
  8
0
  6
CONTINUOUS
 62
     4
 10
588.86968125608973
 20
-247.61534771967851
 30
0.0
 11
588.86968125608917
 21
-249.36534771967871
 31
0.0
  0
LINE
  5
1A104
  8
0
  6
CONTINUOUS
 62
     4
 10
588.86968125608985
 20
-251.11534771967851
 30
0.0
 11
588.86968125608917
 21
-249.36534771967871
 31
0.0
  0
LINE
  5
1A105
  8
0
  6
CONTINUOUS
 62
     4
 10
585.36968125608951
 20
-245.44034771967881
 30
0.0
 11
585.69531738917624
 21
-245.3153477196789
 31
0.0
  0
LINE
  5
1A106
  8
0
  6
CONTINUOUS
 62
     4
 10
585.69531738917624
 20
-245.3153477196789
 30
0.0
 11
586.94468125608989
 21
-245.3153477196789
 31
0.0
  0
LINE
  5
1A107
  8
0
  6
CONTINUOUS
 62
     4
 10
580.86968125608973
 20
-253.29034771967889
 30
0.0
 11
580.86968125608973
 21
-245.44034771967881
 31
0.0
  0
LINE
  5
1A108
  8
0
  6
CONTINUOUS
 62
     4
 10
586.94468125609001
 20
-253.41534771967861
 30
0.0
 11
587.36968125608928
 21
-252.99034771967899
 31
0.0
  0
LINE
  5
1A109
  8
0
  6
CONTINUOUS
 62
     4
 10
585.36968125608951
 20
-253.29034771967869
 30
0.0
 11
585.69531738917624
 21
-253.41534771967861
 31
0.0
  0
LINE
  5
1A10A
  8
0
  6
CONTINUOUS
 62
     4
 10
585.69531738917624
 20
-253.41534771967861
 30
0.0
 11
586.94468125608989
 21
-253.41534771967861
 31
0.0
  0
LINE
  5
1A10B
  8
0
  6
CONTINUOUS
 62
     4
 10
586.94468125609001
 20
-253.41534771967861
 30
0.0
 11
586.94468125609001
 21
-249.36534771967891
 31
0.0
  0
LINE
  5
1A10C
  8
0
  6
CONTINUOUS
 62
     4
 10
586.94468125609001
 20
-249.36534771967891
 30
0.0
 11
586.94468125608989
 21
-245.3153477196789
 31
0.0
  0
LINE
  5
1A10D
  8
0
  6
CONTINUOUS
 62
     4
 10
585.69531738917624
 20
-245.3153477196789
 30
0.0
 11
585.69531738917624
 21
-249.36534771967891
 31
0.0
  0
LINE
  5
1A10E
  8
0
  6
CONTINUOUS
 62
     4
 10
585.69531738917624
 20
-249.36534771967891
 30
0.0
 11
585.69531738917624
 21
-253.41534771967861
 31
0.0
  0
LINE
  5
1A10F
  8
0
  6
CONTINUOUS
 62
     4
 10
585.36968125608973
 20
-253.29034771967869
 30
0.0
 11
585.36968125608973
 21
-249.36534771967891
 31
0.0
  0
ENDBLK
  5
1A110
  8
0
  0
BLOCK
  8
0
  2
*D16
 70
     1
 10
0.0
 20
0.0
 30
0.0
  3
*D16
  1

  0
LINE
  5
1A30A
  8
0
  6
CONTINUOUS
 62
     2
 10
316.64312742251769
 20
194.94267274344591
 30
0.0
 11
316.64312742251769
 21
201.30627229884971
 31
0.0
  0
LINE
  5
1A30B
  8
0
  6
CONTINUOUS
 62
     2
 10
322.64312742251769
 20
194.94267274344591
 30
0.0
 11
322.64312742251769
 21
201.30627229884971
 31
0.0
  0
LINE
  5
1A30C
  8
0
  6
CONTINUOUS
 62
     2
 10
314.14312742251769
 20
200.10627229884969
 30
0.0
 11
311.64312742251758
 21
200.10627229884969
 31
0.0
  0
LINE
  5
1A30D
  8
0
  6
CONTINUOUS
 62
     2
 10
325.14312742251758
 20
200.10627229884969
 30
0.0
 11
327.64312742251758
 21
200.10627229884969
 31
0.0
  0
LINE
  5
1A30E
  8
0
  6
CONTINUOUS
 62
     2
 10
316.64312742251769
 20
200.10627229884969
 30
0.0
 11
322.64312742251769
 21
200.10627229884969
 31
0.0
  0
SOLID
  5
1A30F
  8
0
  6
CONTINUOUS
 62
     2
 10
314.14312742251769
 20
200.5229389655164
 30
0.0
 11
314.14312742251769
 21
199.689605632183
 31
0.0
 12
316.64312742251769
 22
200.10627229884969
 32
0.0
 13
316.64312742251769
 23
200.10627229884969
 33
0.0
  0
SOLID
  5
1A310
  8
0
  6
CONTINUOUS
 62
     2
 10
325.14312742251758
 20
200.5229389655164
 30
0.0
 11
325.14312742251758
 21
199.689605632183
 31
0.0
 12
322.64312742251769
 22
200.10627229884969
 32
0.0
 13
322.64312742251769
 23
200.10627229884969
 33
0.0
  0
INSERT
  5
1A311
  8
0
  6
CONTINUOUS
  2
*U38
 10
0.0
 20
0.0
 30
0.0
  0
POINT
  5
1A312
  8
DEFPOINTS
  6
CONTINUOUS
 62
     0
 10
316.64312742251769
 20
194.94267274344591
 30
0.0
  0
POINT
  5
1A313
  8
DEFPOINTS
  6
CONTINUOUS
 62
     0
 10
322.64312742251769
 20
194.94267274344591
 30
0.0
  0
POINT
  5
1A314
  8
DEFPOINTS
  6
CONTINUOUS
 62
     0
 10
322.64312742251769
 20
200.10627229884969
 30
0.0
  0
ENDBLK
  5
1A315
  8
0
  0
BLOCK
  8
0
  2
*D17
 70
     1
 10
0.0
 20
0.0
 30
0.0
  3
*D17
  1

  0
LINE
  5
1A318
  8
0
  6
CONTINUOUS
 62
     2
 10
301.64312742251769
 20
194.94267274344591
 30
0.0
 11
301.64312742251769
 21
201.30627229884971
 31
0.0
  0
LINE
  5
1A319
  8
0
  6
CONTINUOUS
 62
     2
 10
316.64312742251769
 20
194.94267274344591
 30
0.0
 11
316.64312742251769
 21
201.30627229884971
 31
0.0
  0
LINE
  5
1A31A
  8
0
  6
CONTINUOUS
 62
     2
 10
304.14312742251769
 20
200.10627229884969
 30
0.0
 11
314.14312742251769
 21
200.10627229884969
 31
0.0
  0
SOLID
  5
1A31B
  8
0
  6
CONTINUOUS
 62
     2
 10
304.14312742251769
 20
200.5229389655164
 30
0.0
 11
304.14312742251769
 21
199.689605632183
 31
0.0
 12
301.64312742251769
 22
200.10627229884969
 32
0.0
 13
301.64312742251769
 23
200.10627229884969
 33
0.0
  0
SOLID
  5
1A31C
  8
0
  6
CONTINUOUS
 62
     2
 10
314.14312742251769
 20
200.5229389655164
 30
0.0
 11
314.14312742251769
 21
199.689605632183
 31
0.0
 12
316.64312742251769
 22
200.10627229884969
 32
0.0
 13
316.64312742251769
 23
200.10627229884969
 33
0.0
  0
INSERT
  5
1A31D
  8
0
  6
CONTINUOUS
  2
*U39
 10
0.0
 20
0.0
 30
0.0
  0
POINT
  5
1A31E
  8
DEFPOINTS
  6
CONTINUOUS
 62
     0
 10
301.64312742251769
 20
194.94267274344591
 30
0.0
  0
POINT
  5
1A31F
  8
DEFPOINTS
  6
CONTINUOUS
 62
     0
 10
316.64312742251769
 20
194.94267274344591
 30
0.0
  0
POINT
  5
1A320
  8
DEFPOINTS
  6
CONTINUOUS
 62
     0
 10
316.64312742251769
 20
200.10627229884969
 30
0.0
  0
ENDBLK
  5
1A321
  8
0
  0
BLOCK
  8
0
  2
*D18
 70
     1
 10
0.0
 20
0.0
 30
0.0
  3
*D18
  1

  0
LINE
  5
1A324
  8
0
  6
CONTINUOUS
 62
     2
 10
295.64312742251758
 20
194.8604209395626
 30
0.0
 11
295.64312742251758
 21
201.10627229884969
 31
0.0
  0
LINE
  5
1A325
  8
0
  6
CONTINUOUS
 62
     2
 10
301.64312742251769
 20
194.8604209395626
 30
0.0
 11
301.64312742251769
 21
201.10627229884969
 31
0.0
  0
LINE
  5
1A326
  8
0
  6
CONTINUOUS
 62
     2
 10
293.14312742251758
 20
200.10627229884969
 30
0.0
 11
290.64312742251758
 21
200.10627229884969
 31
0.0
  0
LINE
  5
1A327
  8
0
  6
CONTINUOUS
 62
     2
 10
304.14312742251769
 20
200.10627229884969
 30
0.0
 11
306.64312742251758
 21
200.10627229884969
 31
0.0
  0
LINE
  5
1A328
  8
0
  6
CONTINUOUS
 62
     2
 10
295.64312742251758
 20
200.10627229884969
 30
0.0
 11
301.64312742251769
 21
200.10627229884969
 31
0.0
  0
SOLID
  5
1A329
  8
0
  6
CONTINUOUS
 62
     2
 10
293.14312742251758
 20
200.5229389655164
 30
0.0
 11
293.14312742251758
 21
199.689605632183
 31
0.0
 12
295.64312742251758
 22
200.10627229884969
 32
0.0
 13
295.64312742251758
 23
200.10627229884969
 33
0.0
  0
SOLID
  5
1A32A
  8
0
  6
CONTINUOUS
 62
     2
 10
304.14312742251769
 20
200.5229389655164
 30
0.0
 11
304.14312742251769
 21
199.689605632183
 31
0.0
 12
301.64312742251769
 22
200.10627229884969
 32
0.0
 13
301.64312742251769
 23
200.10627229884969
 33
0.0
  0
INSERT
  5
1A32B
  8
0
  6
CONTINUOUS
  2
*U40
 10
0.0
 20
0.0
 30
0.0
  0
POINT
  5
1A32C
  8
DEFPOINTS
  6
CONTINUOUS
 62
     0
 10
295.64312742251758
 20
194.26042093956261
 30
0.0
  0
POINT
  5
1A32D
  8
DEFPOINTS
  6
CONTINUOUS
 62
     0
 10
301.64312742251769
 20
194.26042093956261
 30
0.0
  0
POINT
  5
1A32E
  8
DEFPOINTS
  6
CONTINUOUS
 62
     0
 10
301.64312742251769
 20
200.10627229884969
 30
0.0
  0
ENDBLK
  5
1A32F
  8
0
  0
BLOCK
  8
0
  2
FDFSDFDF
 70
     0
 10
0.0
 20
0.0
 30
0.0
  3
FDFSDFDF
  1

  0
INSERT
  5
1A333
  8
0
  6
CONTINUOUS
 62
     2
  2
*X41
 10
0.0
 20
0.0
 30
0.0
1001
ACAD
1000
HATCH
1002
{
1070
    19
1000
ANSI31
1040
20.0
1040
0.0
1000
ASC_BOUNDS
1070
     3
1070
     1
1070
    18
1005
1A353
1005
1A335
1005
1A334
1005
1A33B
1005
1A33A
1005
1A336
1005
1A346
1005
1A347
1005
1A345
1005
1A359
1005
1A35A
1005
1A35B
1005
1A343
1005
1A34A
1005
1A349
1005
1A348
1005
1A341
1005
1A33F
1070
     1
1070
     7
1005
1A356
1005
1A357
1005
1A334
1005
1A335
1005
1A353
1005
1A33F
1005
1A355
1070
     1
1070
    11
1005
1A351
1005
1A352
1005
1A33E
1005
1A355
1005
1A353
1005
1A33F
1005
1A341
1005
1A34E
1005
1A34F
1005
1A350
1005
1A34C
1000
ASC_SEEDPOINT
1011
319.20416400034668
1021
-1.1413573603328148E+013
1031
-26561478664.204453
1021
189.24524749093069
1031
0.0
1000
R14_HATCH_DATA
1000
1A333
1011
1.0
1021
-1.1413573603328148E+013
1031
-26561478664.204453
1021
0.0
1031
0.0
1011
0.0
1021
-1.1413573603328148E+013
1031
-26561478664.204453
1021
1.0
1031
0.0
1011
0.0
1021
-1.1413573603328148E+013
1031
-26561478664.204453
1021
0.0
1031
1.0
1040
0.0
1010
0.0
1020
0.0
1030
1.0
1000
ANSI31
1070
     0
1070
     1
1071
        3
1071
        7
1070
     1
1070
     1
1071
       15
1040
322.52357380591383
1040
187.77285330962101
1040
-0.1320611831095684
1040
322.48987902673332
1040
187.89820103176311
1040
-0.7501745522296774
1040
322.95073905779537
1040
188.03250682948061
1040
0.2507365363306379
1040
325.6050548447846
1040
192.9927773723598
1040
0.0192153241715104
1040
325.58745732531872
1040
193.45051156929571
1040
0.0
1040
324.54838331084329
1040
193.45051156929571
1040
0.2679491924310505
1040
323.50915282630223
1040
192.85051156929589
1040
0.0
1040
323.16274266478808
1040
192.25051156929581
1040
-0.2679491924312327
1040
322.64312742251713
1040
191.95051156929591
1040
0.0
1040
316.64312742251713
1040
191.95051156929591
1040
-0.2679491924310309
1040
316.12351218024651
1040
192.25051156929581
1040
0.0
1040
315.77710201873248
1040
192.850511569296
1040
0.2679491924310934
1040
314.7378715341913
1040
193.45051156929591
1040
0.0
1040
313.69879751971638
1040
193.45051156929591
1040
0.01921532417152
1040
313.6812000002505
1040
192.9927773723598
1040
0.5709145023684346
1071
       11
1005
1A34C
1005
1A350
1005
1A34F
1005
1A34E
1005
1A341
1005
1A33F
1005
1A353
1005
1A355
1005
1A33E
1005
1A352
1005
1A351
1071
        7
1070
     1
1070
     1
1071
        9
1040
322.95073905779537
1040
188.03250682948061
1040
-0.1427431609333959
1040
322.98987902673332
1040
187.89820103176311
1040
-0.2406337495410551
1040
322.88640054215352
1040
187.69563883015829
1040
0.0
1040
323.23408639120862
1040
187.2149721454773
1040
0.0
1040
325.47862043463812
1040
187.89971892824849
1040
0.0
1040
328.09183864425751
1040
190.92010459039369
1040
0.0
1040
328.66715002206729
1040
193.45051156929571
1040
0.0
1040
325.58745732531872
1040
193.45051156929571
1040
-0.0192153241715104
1040
325.6050548447846
1040
192.9927773723598
1040
-0.2507365363306379
1071
        7
1005
1A355
1005
1A33F
1005
1A353
1005
1A335
1005
1A334
1005
1A357
1005
1A356
1071
        7
1070
     1
1070
     1
1071
       19
1040
303.54838331084352
1040
193.45051156929591
1040
0.2679491924310505
1040
302.5091528263024
1040
192.85051156929609
1040
0.0
1040
302.16274266478808
1040
192.25051156929581
1040
-0.2679491924312327
1040
301.64312742251713
1040
191.95051156929591
1040
0.0
1040
295.64312742251713
1040
191.95051156929591
1040
-0.2679491924310892
1040
295.12351218024651
1040
192.25051156929581
1040
0.0
1040
294.77710201873248
1040
192.850511569296
1040
0.2679491924311121
1040
293.73787153419119
1040
193.45051156929611
1040
0.0
1040
284.88492660384009
1040
193.45051156929591
1040
0.0
1040
285.22418130025
1040
191.327173156295
1040
0.0
1040
288.41838560002498
1040
187.77850831812449
1040
0.0
1040
296.54777269352439
1040
185.5476890666805
1040
0.0
1040
310.0985767472207
1040
185.10629339102061
1040
0.0
1040
317.76889294371591
1040
185.5476890666805
1040
0.0
1040
323.23408639120851
1040
187.2149721454773
1040
0.0
1040
322.88640054215352
1040
187.69563883015829
1040
-0.4441191269305316
1040
322.52357380591383
1040
187.77285330962101
1040
-0.5709145023684346
1040
313.6812000002505
1040
192.9927773723598
1040
-0.01921532417152
1040
313.69879751971638
1040
193.45051156929591
1040
0.0
1071
       18
1005
1A33F
1005
1A341
1005
1A348
1005
1A349
1005
1A34A
1005
1A343
1005
1A35B
1005
1A35A
1005
1A359
1005
1A345
1005
1A347
1005
1A346
1005
1A336
1005
1A33A
1005
1A33B
1005
1A334
1005
1A335
1005
1A353
1070
     0
1070
     1
1040
0.0
1040
20.0
1070
     0
1070
     1
1040
0.7853981633974483
1040
0.0
1040
0.0
1040
-1.767766952966368
1040
1.767766952966368
1070
     0
1040
0.0406034499754259
1071
        3
1040
319.20416400034668
1040
189.24524749093069
1040
0.0
1040
326.39538939337223
1040
191.39723023879239
1040
0.0
1040
309.73775247072223
1040
189.4888679050818
1040
0.0
1002
}
  0
LINE
  5
1A334
  8
0
  6
CONTINUOUS
 62
     3
 10
317.76889294371591
 20
185.5476890666805
 30
0.0
 11
325.47862043463812
 21
187.8997189282486
 31
0.0
1001
ACAD
1000
ASC_BOUNDS
1002
{
1070
    19
1005
1A333
1005
1A333
1002
}
  0
LINE
  5
1A335
  8
0
  6
CONTINUOUS
 62
     2
 10
322.73987902673332
 20
187.89820103176311
 30
0.0
 11
328.81184676062952
 21
179.50386284378649
 31
0.0
1001
ACAD
1000
ASC_BOUNDS
1002
{
1070
    19
1005
1A333
1005
1A333
1002
}
  0
LINE
  5
1A336
  8
0
  6
CONTINUOUS
 62
     3
 10
288.41838560002498
 20
187.77850831812449
 30
0.0
 11
296.54777269352439
 21
185.5476890666805
 31
0.0
1001
ACAD
1000
ASC_BOUNDS
1002
{
1070
    19
1005
1A333
1002
}
  0
LINE
  5
1A337
  8
0
  6
CONTINUOUS
 62
     7
 10
298.03898836139177
 20
174.76176518260809
 30
0.0
 11
314.8322691380983
 21
174.76176518260809
 31
0.0
  0
LINE
  5
1A338
  8
0
  6
CONTINUOUS
 62
     3
 10
298.03898836139177
 20
175.76176518260809
 30
0.0
 11
314.8322691380983
 21
175.76176518260809
 31
0.0
  0
TEXT
  5
1A339
  8
0
  6
CONTINUOUS
 62
     7
 10
298.06094022686528
 20
176.4246370851877
 30
0.0
 40
3.0
  1
DETAIL X
  0
LINE
  5
1A33A
  8
0
  6
CONTINUOUS
 62
     3
 10
296.54777269352439
 20
185.5476890666805
 30
0.0
 11
310.09857674722087
 21
185.1062933910207
 31
0.0
1001
ACAD
1000
ASC_BOUNDS
1002
{
1070
    19
1005
1A333
1002
}
  0
LINE
  5
1A33B
  8
0
  6
CONTINUOUS
 62
     3
 10
310.09857674722087
 20
185.1062933910207
 30
0.0
 11
317.76889294371591
 21
185.5476890666805
 31
0.0
1001
ACAD
1000
ASC_BOUNDS
1002
{
1070
    19
1005
1A333
1002
}
  0
LINE
  5
1A33C
  8
0
  6
CONTINUOUS
 62
     2
 10
328.81184676062952
 20
179.50386284378649
 30
0.0
 11
333.63284564025082
 21
179.50386284378649
 31
0.0
  0
TEXT
  5
1A33D
  8
0
  6
CONTINUOUS
 62
     3
 10
329.64491976575488
 20
180.06168687877539
 30
0.0
 40
3.0
  1
Y
  0
ARC
  5
1A33E
  8
0
  6
CONTINUOUS
 62
     7
 10
324.54838331084329
 20
192.2505115692957
 30
0.0
 40
1.1999999999999991
 50
90.0
 51
149.99999999998491
1001
ACAD
1000
ASC_BOUNDS
1002
{
1070
    19
1005
1A333
1002
}
  0
CIRCLE
  5
1A33F
  8
0
  6
PHANTOM2
 62
     4
 10
319.64312742251752
 20
192.9927773723598
 30
0.0
 40
5.9619274222670748
1001
ACAD
1000
ASC_BOUNDS
1002
{
1070
    19
1005
1A333
1005
1A333
1005
1A333
1002
}
  0
DIMENSION
  5
1A340
  8
0
  6
CONTINUOUS
 62
     7
  2
*D16
 10
322.64312742251769
 20
200.10627229884969
 30
0.0
 11
319.64312742251758
 21
202.60656757444031
 31
0.0
  1
2
  3
KSM
 13
316.64312742251769
 23
194.94267274344591
 33
0.0
 14
322.64312742251769
 24
194.94267274344591
 34
0.0
1001
ACAD
1000
DSTYLE
1002
{
1070
    47
1040
0.1
1070
    71
1070
     0
1070
    48
1040
-0.02
1070
   146
1040
0.7
1070
   272
1070
     3
1070
   271
1070
     3
1070
    41
1040
2.5
1002
}
  0
LINE
  5
1A341
  8
0
  6
CONTINUOUS
 62
     7
 10
303.54838331084352
 20
193.45051156929591
 30
0.0
 11
314.7378715341913
 21
193.45051156929591
 31
0.0
1001
ACAD
1000
ASC_BOUNDS
1002
{
1070
    19
1005
1A333
1005
1A333
1002
}
  0
DIMENSION
  5
1A342
  8
0
  6
CONTINUOUS
 62
     7
  2
*D17
 10
316.64312742251769
 20
200.10627229884969
 30
0.0
 11
309.14312742251758
 21
202.60627229884969
 31
0.0
  1
5
  3
KSM
 13
301.64312742251769
 23
194.94267274344591
 33
0.0
 14
316.64312742251769
 24
194.94267274344591
 34
0.0
1001
ACAD
1000
DSTYLE
1002
{
1070
    47
1040
0.1
1070
    71
1070
     0
1070
    48
1040
-0.02
1070
   146
1040
0.7
1070
   272
1070
     3
1070
   271
1070
     3
1070
    41
1040
2.5
1002
}
  0
LINE
  5
1A343
  8
0
  6
CONTINUOUS
 10
295.64312742251713
 20
191.95051156929591
 30
0.0
 11
301.64312742251713
 21
191.95051156929591
 31
0.0
1001
ACAD
1000
ASC_BOUNDS
1002
{
1070
    19
1005
1A333
1002
}
  0
DIMENSION
  5
1A344
  8
0
  6
CONTINUOUS
  2
*D18
 10
301.64312742251769
 20
200.10627229884969
 30
0.0
 11
298.64312742251758
 21
200.10627229884969
 31
0.0
 70
   128
  1
2
  3
ISO-25
 13
295.64312742251758
 23
194.26042093956261
 33
0.0
 14
301.64312742251769
 24
194.26042093956261
 34
0.0
1001
ACAD
1000
DSTYLE
1002
{
1070
   287
1070
     2
1070
   144
1040
333.0
1070
    42
1040
0.6
1070
    43
1040
1.0
1070
    44
1040
1.0
1070
    47
1040
0.1
1070
    48
1040
0.1
1070
    73
1070
     0
1070
   140
1040
3.0
1070
   141
1040
-0.5
1070
   146
1040
0.7
1070
   147
1040
0.6
1070
   178
1070
     3
1070
   271
1070
     8
1070
   272
1070
     8
1070
   275
1070
     1
1070
   283
1070
     0
1070
   284
1070
     8
1070
   289
1070
     2
1002
}
  0
LINE
  5
1A345
  8
0
  6
CONTINUOUS
 62
     7
 10
284.88492660384009
 20
193.45051156929591
 30
0.0
 11
293.73787153419119
 21
193.45051156929611
 31
0.0
1001
ACAD
1000
ASC_BOUNDS
1002
{
1070
    19
1005
1A333
1002
}
  0
LINE
  5
1A346
  8
0
  6
CONTINUOUS
 62
     3
 10
285.22418130025011
 20
191.32717315629489
 30
0.0
 11
288.41838560002498
 21
187.77850831812449
 31
0.0
1001
ACAD
1000
ASC_BOUNDS
1002
{
1070
    19
1005
1A333
1002
}
  0
LINE
  5
1A347
  8
0
  6
CONTINUOUS
 62
     3
 10
285.22418130025011
 20
191.32717315629489
 30
0.0
 11
284.88492660384009
 21
193.45051156929591
 31
0.0
1001
ACAD
1000
ASC_BOUNDS
1002
{
1070
    19
1005
1A333
1002
}
  0
ARC
  5
1A348
  8
0
  6
CONTINUOUS
 62
     7
 10
303.54838331084352
 20
192.2505115692959
 30
0.0
 40
1.1999999999999991
 50
90.0
 51
149.99999999998491
1001
ACAD
1000
ASC_BOUNDS
1002
{
1070
    19
1005
1A333
1002
}
  0
LINE
  5
1A349
  8
0
  6
CONTINUOUS
 62
     7
 10
302.16274266478808
 20
192.25051156929581
 30
0.0
 11
302.5091528263024
 21
192.85051156929609
 31
0.0
1001
ACAD
1000
ASC_BOUNDS
1002
{
1070
    19
1005
1A333
1002
}
  0
ARC
  5
1A34A
  8
0
  6
CONTINUOUS
 62
     7
 10
301.64312742251718
 20
192.55051156929591
 30
0.0
 40
0.6000000000000001
 50
270.0
 51
329.99999999999721
1001
ACAD
1000
ASC_BOUNDS
1002
{
1070
    19
1005
1A333
1002
}
  0
LINE
  5
1A34B
  8
0
  6
CENTER
 62
     2
 10
301.64312742251769
 20
194.26042093956261
 30
0.0
 11
301.64312742251769
 21
189.02229574619631
 31
0.0
  0
LINE
  5
1A34C
  8
0
  6
CONTINUOUS
 10
316.64312742251713
 20
191.95051156929591
 30
0.0
 11
322.64312742251713
 21
191.95051156929591
 31
0.0
1001
ACAD
1000
ASC_BOUNDS
1002
{
1070
    19
1005
1A333
1002
}
  0
LINE
  5
1A34D
  8
0
  6
CENTER
 62
     2
 10
316.64312742251769
 20
194.26042093956261
 30
0.0
 11
316.64312742251769
 21
189.02229574619631
 31
0.0
  0
ARC
  5
1A34E
  8
0
  6
CONTINUOUS
 62
     7
 10
314.7378715341913
 20
192.25051156929601
 30
0.0
 40
1.1999999999999991
 50
30.00000000000194
 51
90.0
1001
ACAD
1000
ASC_BOUNDS
1002
{
1070
    19
1005
1A333
1002
}
  0
LINE
  5
1A34F
  8
0
  6
CONTINUOUS
 62
     7
 10
316.12351218024651
 20
192.25051156929581
 30
0.0
 11
315.77710201873248
 21
192.850511569296
 31
0.0
1001
ACAD
1000
ASC_BOUNDS
1002
{
1070
    19
1005
1A333
1002
}
  0
ARC
  5
1A350
  8
0
  6
CONTINUOUS
 62
     7
 10
316.64312742251718
 20
192.55051156929591
 30
0.0
 40
0.6000000000000001
 50
209.9999999999892
 51
270.0
1001
ACAD
1000
ASC_BOUNDS
1002
{
1070
    19
1005
1A333
1002
}
  0
ARC
  5
1A351
  8
0
  6
CONTINUOUS
 62
     7
 10
322.64312742251718
 20
192.55051156929591
 30
0.0
 40
0.6000000000000001
 50
270.0
 51
329.99999999999721
1001
ACAD
1000
ASC_BOUNDS
1002
{
1070
    19
1005
1A333
1002
}
  0
LINE
  5
1A352
  8
0
  6
CONTINUOUS
 62
     7
 10
323.16274266478808
 20
192.25051156929581
 30
0.0
 11
323.50915282630223
 21
192.85051156929589
 31
0.0
1001
ACAD
1000
ASC_BOUNDS
1002
{
1070
    19
1005
1A333
1002
}
  0
POLYLINE
  5
1A353
  8
0
  6
CONTINUOUS
 62
     7
 66
     1
 10
0.0
 20
0.0
 30
0.0
 70
     1
 40
0.5
 41
0.5
1001
ACAD
1000
ASC_BOUNDS
1002
{
1070
    19
1005
1A333
1005
1A333
1005
1A333
1002
}
  0
VERTEX
  5
1C539
  8
0
  6
CONTINUOUS
 62
     7
 10
322.48987902673332
 20
187.89820103176311
 30
0.0
 42
-1.0
  0
VERTEX
  5
1C53A
  8
0
  6
CONTINUOUS
 62
     7
 10
322.98987902673332
 20
187.89820103176311
 30
0.0
 42
-1.0
  0
SEQEND
  5
1C53B
  8
0
  6
CONTINUOUS
 62
     7
  0
LINE
  5
1A354
  8
0
  6
CENTER
 62
     2
 10
322.64312742251769
 20
194.26042093956261
 30
0.0
 11
322.64312742251769
 21
189.02229574619631
 31
0.0
  0
LINE
  5
1A355
  8
0
  6
CONTINUOUS
 62
     7
 10
324.54838331084329
 20
193.45051156929571
 30
0.0
 11
328.66715002206729
 21
193.45051156929571
 31
0.0
1001
ACAD
1000
ASC_BOUNDS
1002
{
1070
    19
1005
1A333
1005
1A333
1002
}
  0
LINE
  5
1A356
  8
0
  6
CONTINUOUS
 62
     3
 10
328.09183864425751
 20
190.92010459039369
 30
0.0
 11
328.66715002206729
 21
193.45051156929591
 31
0.0
1001
ACAD
1000
ASC_BOUNDS
1002
{
1070
    19
1005
1A333
1002
}
  0
LINE
  5
1A357
  8
0
  6
CONTINUOUS
 62
     3
 10
325.47862043463812
 20
187.8997189282486
 30
0.0
 11
328.09183864425751
 21
190.92010459039369
 31
0.0
1001
ACAD
1000
ASC_BOUNDS
1002
{
1070
    19
1005
1A333
1002
}
  0
LINE
  5
1A358
  8
0
  6
CENTER
 62
     2
 10
295.64312742251758
 20
194.26042093956269
 30
0.0
 11
295.64312742251758
 21
189.02229574619631
 31
0.0
  0
ARC
  5
1A359
  8
0
  6
CONTINUOUS
 62
     7
 10
293.73787153419119
 20
192.25051156929601
 30
0.0
 40
1.1999999999999991
 50
30.000000000001911
 51
90.0
1001
ACAD
1000
ASC_BOUNDS
1002
{
1070
    19
1005
1A333
1002
}
  0
LINE
  5
1A35A
  8
0
  6
CONTINUOUS
 62
     7
 10
295.12351218024651
 20
192.25051156929581
 30
0.0
 11
294.77710201873248
 21
192.850511569296
 31
0.0
1001
ACAD
1000
ASC_BOUNDS
1002
{
1070
    19
1005
1A333
1002
}
  0
ARC
  5
1A35B
  8
0
  6
CONTINUOUS
 62
     7
 10
295.64312742251713
 20
192.55051156929599
 30
0.0
 40
0.6000000000000001
 50
209.9999999999892
 51
270.0
1001
ACAD
1000
ASC_BOUNDS
1002
{
1070
    19
1005
1A333
1002
}
  0
ENDBLK
  5
1A35C
  8
0
  0
BLOCK
  8
0
  2
*D20
 70
     1
 10
0.0
 20
0.0
 30
0.0
  3
*D20
  1

  0
LINE
  5
1C56F
  8
0
  6
CONTINUOUS
 62
     2
 10
190.0578525118184
 20
102.9487738819778
 30
0.0
 11
190.0578525118184
 21
85.300768963421987
 31
0.0
  0
LINE
  5
1C570
  8
0
  6
CONTINUOUS
 62
     2
 10
230.05785251181851
 20
106.1713769322272
 30
0.0
 11
230.05785251181851
 21
85.300768963421987
 31
0.0
  0
LINE
  5
1C571
  8
0
  6
CONTINUOUS
 62
     2
 10
192.5578525118184
 20
86.300768963422016
 30
0.0
 11
227.55785251181851
 21
86.300768963422016
 31
0.0
  0
SOLID
  5
1C572
  8
0
  6
CONTINUOUS
 62
     2
 10
192.5578525118184
 20
86.717435630088673
 30
0.0
 11
192.5578525118184
 21
85.88410229675533
 31
0.0
 12
190.0578525118184
 22
86.300768963422016
 32
0.0
 13
190.0578525118184
 23
86.300768963422016
 33
0.0
  0
SOLID
  5
1C573
  8
0
  6
CONTINUOUS
 62
     2
 10
227.55785251181851
 20
86.717435630088673
 30
0.0
 11
227.55785251181851
 21
85.88410229675533
 31
0.0
 12
230.05785251181851
 22
86.300768963422016
 32
0.0
 13
230.05785251181851
 23
86.300768963422016
 33
0.0
  0
TEXT
  8
0
  40
3
  5
1C59B
  62
3
  72
0
  71
0
 10
210.058
 20
84.5008
 30
0.000000
  1
40
  0
POINT
  5
1C575
  8
DEFPOINTS
  6
CONTINUOUS
 62
     0
 10
190.0578525118184
 20
103.54877388197779
 30
0.0
  0
POINT
  5
1C576
  8
DEFPOINTS
  6
CONTINUOUS
 62
     0
 10
230.05785251181851
 20
106.7713769322272
 30
0.0
  0
POINT
  5
1C577
  8
DEFPOINTS
  6
CONTINUOUS
 62
     0
 10
230.05785251181851
 20
86.300768963422016
 30
0.0
  0
ENDBLK
  5
1B3B1
  8
0
  0
BLOCK
  8
0
  2
*D21
 70
     1
 10
0.0
 20
0.0
 30
0.0
  3
*D21
  1

  0
LINE
  5
1C54B
  8
0
  6
CONTINUOUS
 62
     2
 10
74.657852511818405
 20
112.30952109021401
 30
0.0
 11
74.657852511818405
 21
77.300768963422001
 31
0.0
  0
LINE
  5
1C54C
  8
0
  6
CONTINUOUS
 62
     2
 10
140.05785251181851
 20
101.9072773010499
 30
0.0
 11
140.05785251181851
 21
77.300768963422001
 31
0.0
  0
LINE
  5
1C54D
  8
0
  6
CONTINUOUS
 62
     2
 10
77.157852511818405
 20
78.300768963422001
 30
0.0
 11
137.55785251181851
 21
78.300768963422001
 31
0.0
  0
SOLID
  5
1C54E
  8
0
  6
CONTINUOUS
 62
     2
 10
77.157852511818405
 20
78.717435630088673
 30
0.0
 11
77.157852511818405
 21
77.88410229675533
 31
0.0
 12
74.657852511818405
 22
78.300768963422001
 32
0.0
 13
74.657852511818405
 23
78.300768963422001
 33
0.0
  0
SOLID
  5
1C54F
  8
0
  6
CONTINUOUS
 62
     2
 10
137.55785251181851
 20
78.717435630088673
 30
0.0
 11
137.55785251181851
 21
77.88410229675533
 31
0.0
 12
140.05785251181851
 22
78.300768963422001
 32
0.0
 13
140.05785251181851
 23
78.300768963422001
 33
0.0
  0
TEXT
  8
0
  40
3
  5
1C59C
  62
3
  72
0
  71
0
 10
107.358
 20
76.5008
 30
0.000000
  1
65.4
  0
POINT
  5
1C551
  8
DEFPOINTS
  6
CONTINUOUS
 62
     0
 10
74.657852511818405
 20
112.909521090214
 30
0.0
  0
POINT
  5
1C552
  8
DEFPOINTS
  6
CONTINUOUS
 62
     0
 10
140.05785251181851
 20
102.5072773010499
 30
0.0
  0
POINT
  5
1C553
  8
DEFPOINTS
  6
CONTINUOUS
 62
     0
 10
140.05785251181851
 20
78.300768963422001
 30
0.0
  0
ENDBLK
  5
1B3E5
  8
0
  0
BLOCK
  8
0
  2
*D22
 70
     1
 10
0.0
 20
0.0
 30
0.0
  3
*D22
  1

  0
LINE
  5
1C554
  8
0
  6
CONTINUOUS
 62
     2
 10
74.657852511818405
 20
112.30952109021401
 30
0.0
 11
74.657852511818405
 21
69.300768963422001
 31
0.0
  0
LINE
  5
1C555
  8
0
  6
CONTINUOUS
 62
     2
 10
230.05785251181851
 20
91.721438633499048
 30
0.0
 11
230.05785251181851
 21
69.300768963422001
 31
0.0
  0
LINE
  5
1C556
  8
0
  6
CONTINUOUS
 62
     2
 10
77.157852511818405
 20
70.300768963422001
 30
0.0
 11
227.55785251181851
 21
70.300768963422001
 31
0.0
  0
SOLID
  5
1C557
  8
0
  6
CONTINUOUS
 62
     2
 10
77.157852511818405
 20
70.717435630088673
 30
0.0
 11
77.157852511818405
 21
69.88410229675533
 31
0.0
 12
74.657852511818405
 22
70.300768963422001
 32
0.0
 13
74.657852511818405
 23
70.300768963422001
 33
0.0
  0
SOLID
  5
1C558
  8
0
  6
CONTINUOUS
 62
     2
 10
227.55785251181851
 20
70.717435630088673
 30
0.0
 11
227.55785251181851
 21
69.88410229675533
 31
0.0
 12
230.05785251181851
 22
70.300768963422001
 32
0.0
 13
230.05785251181851
 23
70.300768963422001
 33
0.0
  0
TEXT
  8
0
  40
3
  5
1C59D
  62
3
  72
0
  71
0
 10
152.358
 20
68.5008
 30
0.000000
  1
155.4
  0
POINT
  5
1C55A
  8
DEFPOINTS
  6
CONTINUOUS
 62
     0
 10
74.657852511818405
 20
112.909521090214
 30
0.0
  0
POINT
  5
1C55B
  8
DEFPOINTS
  6
CONTINUOUS
 62
     0
 10
230.05785251181851
 20
92.321438633499042
 30
0.0
  0
POINT
  5
1C55C
  8
DEFPOINTS
  6
CONTINUOUS
 62
     0
 10
230.05785251181851
 20
70.300768963422001
 30
0.0
  0
ENDBLK
  5
1B3F1
  8
0
  0
BLOCK
  8
0
  2
*D23
 70
     1
 10
0.0
 20
0.0
 30
0.0
  3
*D23
  1

  0
LINE
  5
1C55D
  8
0
  6
CONTINUOUS
 62
     2
 10
140.05785251181851
 20
101.9072773010499
 30
0.0
 11
140.05785251181851
 21
77.300768963422001
 31
0.0
  0
LINE
  5
1C55E
  8
0
  6
CONTINUOUS
 62
     2
 10
230.05785251181851
 20
91.721438633499048
 30
0.0
 11
230.05785251181851
 21
77.300768963422001
 31
0.0
  0
LINE
  5
1C55F
  8
0
  6
CONTINUOUS
 62
     2
 10
142.55785251181851
 20
78.300768963422001
 30
0.0
 11
227.55785251181851
 21
78.300768963422001
 31
0.0
  0
SOLID
  5
1C560
  8
0
  6
CONTINUOUS
 62
     2
 10
142.55785251181851
 20
78.717435630088673
 30
0.0
 11
142.55785251181851
 21
77.88410229675533
 31
0.0
 12
140.05785251181851
 22
78.300768963422001
 32
0.0
 13
140.05785251181851
 23
78.300768963422001
 33
0.0
  0
SOLID
  5
1C561
  8
0
  6
CONTINUOUS
 62
     2
 10
227.55785251181851
 20
78.717435630088673
 30
0.0
 11
227.55785251181851
 21
77.88410229675533
 31
0.0
 12
230.05785251181851
 22
78.300768963422001
 32
0.0
 13
230.05785251181851
 23
78.300768963422001
 33
0.0
  0
TEXT
  8
0
  40
3
  5
1C59E
  62
3
  72
0
  71
0
 10
185.058
 20
76.5008
 30
0.000000
  1
90
  0
POINT
  5
1C563
  8
DEFPOINTS
  6
CONTINUOUS
 62
     0
 10
140.05785251181851
 20
102.5072773010499
 30
0.0
  0
POINT
  5
1C564
  8
DEFPOINTS
  6
CONTINUOUS
 62
     0
 10
230.05785251181851
 20
92.321438633499042
 30
0.0
  0
POINT
  5
1C565
  8
DEFPOINTS
  6
CONTINUOUS
 62
     0
 10
230.05785251181851
 20
78.300768963422001
 30
0.0
  0
ENDBLK
  5
1B3FD
  8
0
  0
BLOCK
  8
0
  2
*D24
 70
     1
 10
0.0
 20
0.0
 30
0.0
  3
*D24
  1

  0
LINE
  5
1C566
  8
0
  6
CONTINUOUS
 62
     2
 10
218.18103250866139
 20
103.7322773010503
 30
0.0
 11
251.3076595918362
 21
103.7322773010503
 31
0.0
  0
LINE
  5
1C567
  8
0
  6
CONTINUOUS
 62
     2
 10
218.18103250865801
 20
145.7322773010502
 30
0.0
 11
251.3076595918362
 21
145.7322773010502
 31
0.0
  0
LINE
  5
1C568
  8
0
  6
CONTINUOUS
 62
     2
 10
250.3076595918362
 20
106.2322773010503
 30
0.0
 11
250.3076595918362
 21
143.2322773010502
 31
0.0
  0
SOLID
  5
1C569
  8
0
  6
CONTINUOUS
 62
     2
 10
249.8909929251696
 20
106.2322773010503
 30
0.0
 11
250.72432625850291
 21
106.2322773010503
 31
0.0
 12
250.3076595918362
 22
103.7322773010503
 32
0.0
 13
250.3076595918362
 23
103.7322773010503
 33
0.0
  0
SOLID
  5
1C56A
  8
0
  6
CONTINUOUS
 62
     2
 10
249.8909929251696
 20
143.2322773010502
 30
0.0
 11
250.72432625850291
 21
143.2322773010502
 31
0.0
 12
250.3076595918362
 22
145.7322773010502
 32
0.0
 13
250.3076595918362
 23
145.7322773010502
 33
0.0
  0
TEXT
  8
0
  40
3
  5
1C59F
  62
3
  72
0
  71
0
 10
248.207
 20
120.832
 30
0.000000
  1
%%c42
  0
POINT
  5
1C56C
  8
DEFPOINTS
  6
CONTINUOUS
 62
     0
 10
217.58103250866151
 20
103.7322773010503
 30
0.0
  0
POINT
  5
1C56D
  8
DEFPOINTS
  6
CONTINUOUS
 62
     0
 10
217.5810325086581
 20
145.7322773010502
 30
0.0
  0
POINT
  5
1C56E
  8
DEFPOINTS
  6
CONTINUOUS
 62
     0
 10
250.3076595918362
 20
145.7322773010502
 30
0.0
  0
ENDBLK
  5
1B443
  8
0
  0
BLOCK
  8
0
  2
*D25
 70
     1
 10
0.0
 20
0.0
 30
0.0
  3
*D25
  1

  0
LINE
  5
1C578
  8
0
  6
CONTINUOUS
 62
     2
 10
188.4927890023572
 20
148.4822773010502
 30
0.0
 11
259.30765959183628
 21
148.4822773010502
 31
0.0
  0
LINE
  5
1C579
  8
0
  6
CONTINUOUS
 62
     2
 10
188.4927890023572
 20
100.98227730105
 30
0.0
 11
259.30765959183623
 21
100.9822773010499
 31
0.0
  0
LINE
  5
1C57A
  8
0
  6
CONTINUOUS
 62
     2
 10
258.30765959183628
 20
145.9822773010502
 30
0.0
 11
258.30765959183623
 21
103.4822773010499
 31
0.0
  0
SOLID
  5
1C57B
  8
0
  6
CONTINUOUS
 62
     2
 10
257.8909929251696
 20
145.9822773010502
 30
0.0
 11
258.72432625850303
 21
145.9822773010502
 31
0.0
 12
258.30765959183628
 22
148.4822773010502
 32
0.0
 13
258.30765959183628
 23
148.4822773010502
 33
0.0
  0
SOLID
  5
1C57C
  8
0
  6
CONTINUOUS
 62
     2
 10
257.89099292516948
 20
103.4822773010499
 30
0.0
 11
258.72432625850291
 21
103.4822773010499
 31
0.0
 12
258.30765959183623
 22
100.9822773010499
 32
0.0
 13
258.30765959183623
 23
100.9822773010499
 33
0.0
  0
TEXT
  8
0
  40
3
  5
1C5A0
  62
3
  72
0
  71
0
 10
256.208
 20
120.832
 30
0.000000
  1
47.5
  0
POINT
  5
1C57E
  8
DEFPOINTS
  6
CONTINUOUS
 62
     0
 10
187.8927890023572
 20
148.4822773010502
 30
0.0
  0
POINT
  5
1C57F
  8
DEFPOINTS
  6
CONTINUOUS
 62
     0
 10
187.8927890023572
 20
100.98227730105
 30
0.0
  0
POINT
  5
1C580
  8
DEFPOINTS
  6
CONTINUOUS
 62
     0
 10
258.30765959183623
 20
100.9822773010499
 30
0.0
  0
ENDBLK
  5
1B5D9
  8
0
  0
BLOCK
  8
0
  2
*D26
 70
     1
 10
0.0
 20
0.0
 30
0.0
  3
*D26
  1

  0
LINE
  5
1C581
  8
0
  6
CONTINUOUS
 62
     2
 10
229.15785251181831
 20
115.20727730105
 30
0.0
 11
243.3076595918362
 21
115.20727730105
 31
0.0
  0
LINE
  5
1C582
  8
0
  6
CONTINUOUS
 62
     2
 10
229.15785251181831
 20
134.25727730105001
 30
0.0
 11
243.3076595918362
 21
134.25727730105001
 31
0.0
  0
LINE
  5
1C583
  8
0
  6
CONTINUOUS
 62
     2
 10
242.30765959183631
 20
117.7072773010499
 30
0.0
 11
242.30765959183631
 21
131.75727730105001
 31
0.0
  0
SOLID
  5
1C584
  8
0
  6
CONTINUOUS
 62
     2
 10
241.8909929251696
 20
117.7072773010499
 30
0.0
 11
242.72432625850291
 21
117.7072773010499
 31
0.0
 12
242.30765959183631
 22
115.20727730105
 32
0.0
 13
242.30765959183631
 23
115.20727730105
 33
0.0
  0
SOLID
  5
1C585
  8
0
  6
CONTINUOUS
 62
     2
 10
241.8909929251696
 20
131.75727730105001
 30
0.0
 11
242.72432625850291
 21
131.75727730105001
 31
0.0
 12
242.30765959183631
 22
134.25727730105001
 32
0.0
 13
242.30765959183631
 23
134.25727730105001
 33
0.0
  0
TEXT
  8
0
  40
3
  5
1C5A1
  62
3
  72
0
  71
0
 10
240.208
 20
120.832
 30
0.000000
  1
%%c19.05
  0
POINT
  5
1C587
  8
DEFPOINTS
  6
CONTINUOUS
 62
     0
 10
228.55785251181831
 20
115.20727730105
 30
0.0
  0
POINT
  5
1C588
  8
DEFPOINTS
  6
CONTINUOUS
 62
     0
 10
228.55785251181831
 20
134.25727730105001
 30
0.0
  0
POINT
  5
1C589
  8
DEFPOINTS
  6
CONTINUOUS
 62
     0
 10
242.30765959183631
 20
134.25727730105001
 30
0.0
  0
ENDBLK
  5
1B69F
  8
0
  0
BLOCK
  8
0
  2
*D27
 70
     1
 10
0.0
 20
0.0
 30
0.0
  3
*D27
  1

  0
LINE
  5
1C58A
  8
0
  6
CONTINUOUS
 62
     2
 10
188.05785251181831
 20
135.08227730105
 30
0.0
 11
188.05785251181831
 21
166.81281494482789
 31
0.0
  0
LINE
  5
1C58B
  8
0
  6
CONTINUOUS
 62
     2
 10
230.05785251181831
 20
143.2931776698727
 30
0.0
 11
230.05785251181831
 21
166.81281494482789
 31
0.0
  0
LINE
  5
1C58C
  8
0
  6
CONTINUOUS
 62
     2
 10
190.55785251181831
 20
165.81281494482789
 30
0.0
 11
227.55785251181831
 21
165.81281494482789
 31
0.0
  0
SOLID
  5
1C58D
  8
0
  6
CONTINUOUS
 62
     2
 10
190.55785251181831
 20
166.22948161149449
 30
0.0
 11
190.55785251181831
 21
165.39614827816121
 31
0.0
 12
188.05785251181831
 22
165.81281494482789
 32
0.0
 13
188.05785251181831
 23
165.81281494482789
 33
0.0
  0
SOLID
  5
1C58E
  8
0
  6
CONTINUOUS
 62
     2
 10
227.55785251181831
 20
166.22948161149449
 30
0.0
 11
227.55785251181831
 21
165.39614827816121
 31
0.0
 12
230.05785251181831
 22
165.81281494482789
 32
0.0
 13
230.05785251181831
 23
165.81281494482789
 33
0.0
  0
TEXT
  8
0
  40
3
  5
1C5A2
  62
3
  72
0
  71
0
 10
209.058
 20
164.013
 30
0.000000
  1
42
  0
POINT
  5
1C590
  8
DEFPOINTS
  6
CONTINUOUS
 62
     0
 10
188.05785251181831
 20
134.48227730105
 30
0.0
  0
POINT
  5
1C591
  8
DEFPOINTS
  6
CONTINUOUS
 62
     0
 10
230.05785251181831
 20
142.69317766987271
 30
0.0
  0
POINT
  5
1C592
  8
DEFPOINTS
  6
CONTINUOUS
 62
     0
 10
230.05785251181831
 20
165.81281494482789
 30
0.0
  0
ENDBLK
  5
1B99D
  8
0
  0
BLOCK
  8
0
  2
*X28
 70
     1
 10
0.0
 20
0.0
 30
0.0
  3
*X28
  1

  0
LINE
  5
1C45A
  8
0
  6
CONTINUOUS
 62
     0
 10
296.9863583648297
 20
146.99461131214369
 30
0.0
 11
297.22609957894878
 21
147.09865977717971
 31
0.0
  0
LINE
  5
1C45B
  8
0
  6
CONTINUOUS
 62
     0
 10
296.0131104100642
 20
146.64035096079891
 30
0.0
 11
297.06910472774467
 21
147.0986559220259
 31
0.0
  0
LINE
  5
1C45C
  8
0
  6
CONTINUOUS
 62
     0
 10
295.0398624552987
 20
146.28609060945399
 30
0.0
 11
296.91210987654091
 21
147.09865206687221
 31
0.0
  0
LINE
  5
1C45D
  8
0
  6
CONTINUOUS
 62
     0
 10
294.06661450053321
 20
145.9318302581091
 30
0.0
 11
296.75511502533709
 21
147.09864821171851
 31
0.0
  0
LINE
  5
1C45E
  8
0
  6
CONTINUOUS
 62
     0
 10
293.09336654576771
 20
145.5775699067643
 30
0.0
 11
296.5981201741331
 21
147.09864435656471
 31
0.0
  0
LINE
  5
1C45F
  8
0
  6
CONTINUOUS
 62
     0
 10
292.12011859100232
 20
145.22330955541941
 30
0.0
 11
296.44112532292922
 21
147.09864050141101
 31
0.0
  0
LINE
  5
1C460
  8
0
  6
CONTINUOUS
 62
     0
 10
291.30134492973377
 20
144.93609154881671
 30
0.0
 11
296.2841304717254
 21
147.09863664625729
 31
0.0
  0
LINE
  5
1C461
  8
0
  6
CONTINUOUS
 62
     0
 10
291.27992819882309
 20
144.994929037905
 30
0.0
 11
296.12713562052141
 21
147.0986327911036
 31
0.0
  0
LINE
  5
1C462
  8
0
  6
CONTINUOUS
 62
     0
 10
291.25851146791229
 20
145.05376652699329
 30
0.0
 11
295.97014076931748
 21
147.09862893594979
 31
0.0
  0
LINE
  5
1C463
  8
0
  6
CONTINUOUS
 62
     0
 10
291.2370947370016
 20
145.11260401608149
 30
0.0
 11
295.81314591811361
 21
147.0986250807961
 31
0.0
  0
LINE
  5
1C464
  8
0
  6
CONTINUOUS
 62
     0
 10
291.2156780060908
 20
145.1714415051697
 30
0.0
 11
295.65615106690962
 21
147.09862122564229
 31
0.0
  0
LINE
  5
1C465
  8
0
  6
CONTINUOUS
 62
     0
 10
291.19426127518011
 20
145.23027899425799
 30
0.0
 11
295.4991562157058
 21
147.09861737048871
 31
0.0
  0
LINE
  5
1C466
  8
0
  6
CONTINUOUS
 62
     0
 10
291.17284454426931
 20
145.28911648334619
 30
0.0
 11
295.34216136450198
 21
147.09861351533499
 31
0.0
  0
LINE
  5
1C467
  8
0
  6
CONTINUOUS
 62
     0
 10
291.15142781335862
 20
145.3479539724344
 30
0.0
 11
295.18516651329787
 21
147.0986096601811
 31
0.0
  0
LINE
  5
1C468
  8
0
  6
CONTINUOUS
 62
     0
 10
291.13001108244799
 20
145.40679146152269
 30
0.0
 11
295.028171662094
 21
147.09860580502749
 31
0.0
  0
LINE
  5
1C469
  8
0
  6
CONTINUOUS
 62
     0
 10
291.10859435153719
 20
145.46562895061089
 30
0.0
 11
294.87117681089012
 21
147.0986019498738
 31
0.0
  0
LINE
  5
1C46A
  8
0
  6
CONTINUOUS
 62
     0
 10
291.08717762062628
 20
145.52446643969921
 30
0.0
 11
294.71418195968607
 21
147.09859809471999
 31
0.0
  0
LINE
  5
1C46B
  8
0
  6
CONTINUOUS
 62
     0
 10
291.0657608897157
 20
145.58330392878739
 30
0.0
 11
294.55718710848231
 21
147.0985942395663
 31
0.0
  0
LINE
  5
1C46C
  8
0
  6
CONTINUOUS
 62
     0
 10
291.04434415880502
 20
145.64214141787559
 30
0.0
 11
294.40019225727832
 21
147.0985903844126
 31
0.0
  0
LINE
  5
1C46D
  8
0
  6
CONTINUOUS
 62
     0
 10
291.0229274278941
 20
145.70097890696391
 30
0.0
 11
294.24319740607439
 21
147.0985865292588
 31
0.0
  0
LINE
  5
1C46E
  8
0
  6
CONTINUOUS
 62
     0
 10
291.00151069698347
 20
145.75981639605209
 30
0.0
 11
294.08620255487062
 21
147.0985826741051
 31
0.0
  0
LINE
  5
1C46F
  8
0
  6
CONTINUOUS
 62
     0
 10
290.98009396607279
 20
145.81865388514029
 30
0.0
 11
293.92920770366658
 21
147.09857881895141
 31
0.0
  0
LINE
  5
1C470
  8
0
  6
CONTINUOUS
 62
     0
 10
290.9586772351621
 20
145.87749137422861
 30
0.0
 11
293.77221285246259
 21
147.0985749637976
 31
0.0
  0
LINE
  5
1C471
  8
0
  6
CONTINUOUS
 62
     0
 10
290.9372605042513
 20
145.93632886331679
 30
0.0
 11
293.61521800125888
 21
147.09857110864399
 31
0.0
  0
LINE
  5
1C472
  8
0
  6
CONTINUOUS
 62
     0
 10
290.9158437733405
 20
145.99516635240499
 30
0.0
 11
293.45822315005501
 21
147.09856725349019
 31
0.0
  0
LINE
  5
1C473
  8
0
  6
CONTINUOUS
 62
     0
 10
290.8944270424297
 20
146.05400384149331
 30
0.0
 11
293.30122829885079
 21
147.09856339833641
 31
0.0
  0
LINE
  5
1C474
  8
0
  6
CONTINUOUS
 62
     0
 10
290.8730103115189
 20
146.11284133058149
 30
0.0
 11
293.14423344764708
 21
147.0985595431828
 31
0.0
  0
LINE
  5
1C475
  8
0
  6
CONTINUOUS
 62
     0
 10
290.85159358060832
 20
146.17167881966981
 30
0.0
 11
292.98723859644309
 21
147.09855568802899
 31
0.0
  0
LINE
  5
1C476
  8
0
  6
CONTINUOUS
 62
     0
 10
290.83017684969752
 20
146.2305163087579
 30
0.0
 11
292.83024374523922
 21
147.0985518328753
 31
0.0
  0
LINE
  5
1C477
  8
0
  6
CONTINUOUS
 62
     0
 10
290.80876011878672
 20
146.28935379784619
 30
0.0
 11
292.67324889403551
 21
147.09854797772161
 31
0.0
  0
LINE
  5
1C478
  8
0
  6
CONTINUOUS
 62
     0
 10
290.78734338787598
 20
146.34819128693451
 30
0.0
 11
292.51625404283141
 21
147.09854412256789
 31
0.0
  0
LINE
  5
1C479
  8
0
  6
CONTINUOUS
 62
     0
 10
290.76592665696512
 20
146.40702877602271
 30
0.0
 11
292.35925919162742
 21
147.09854026741411
 31
0.0
  0
LINE
  5
1C47A
  8
0
  6
CONTINUOUS
 62
     0
 10
290.74450992605438
 20
146.46586626511089
 30
0.0
 11
292.20226434042382
 21
147.0985364122605
 31
0.0
  0
LINE
  5
1C47B
  8
0
  6
CONTINUOUS
 62
     0
 10
290.72309319514358
 20
146.52470375419909
 30
0.0
 11
292.04526948921972
 21
147.09853255710669
 31
0.0
  0
LINE
  5
1C47C
  8
0
  6
CONTINUOUS
 62
     0
 10
290.701676464233
 20
146.58354124328741
 30
0.0
 11
291.88827463801579
 21
147.098528701953
 31
0.0
  0
LINE
  5
1C47D
  8
0
  6
CONTINUOUS
 62
     0
 10
290.68025973332232
 20
146.64237873237559
 30
0.0
 11
291.73127978681191
 21
147.09852484679919
 31
0.0
  0
LINE
  5
1C47E
  8
0
  6
CONTINUOUS
 62
     0
 10
290.65884300241152
 20
146.7012162214638
 30
0.0
 11
291.57428493560798
 21
147.0985209916455
 31
0.0
  0
LINE
  5
1C47F
  8
0
  6
CONTINUOUS
 62
     0
 10
290.63742627150071
 20
146.76005371055211
 30
0.0
 11
291.41729008440421
 21
147.09851713649181
 31
0.0
  0
LINE
  5
1C480
  8
0
  6
CONTINUOUS
 62
     0
 10
290.61600954059008
 20
146.8188911996404
 30
0.0
 11
291.26029523320022
 21
147.09851328133809
 31
0.0
  0
LINE
  5
1C481
  8
0
  6
CONTINUOUS
 62
     0
 10
290.59459280967928
 20
146.8777286887285
 30
0.0
 11
291.10330038199629
 21
147.09850942618431
 31
0.0
  0
LINE
  5
1C482
  8
0
  6
CONTINUOUS
 62
     0
 10
290.5731760787686
 20
146.93656617781679
 30
0.0
 11
290.9463055307923
 21
147.0985055710305
 31
0.0
  0
LINE
  5
1C483
  8
0
  6
CONTINUOUS
 62
     0
 10
290.5517593478578
 20
146.9954036669051
 30
0.0
 11
290.78931067958843
 21
147.09850171587689
 31
0.0
  0
LINE
  5
1C484
  8
0
  6
CONTINUOUS
 62
     0
 10
290.53034261694711
 20
147.05424115599331
 30
0.0
 11
290.63231582838432
 21
147.0984978607232
 31
0.0
  0
ENDBLK
  5
1C486
  8
0
  0
BLOCK
  8
0
  2
*U29
 70
     1
 10
0.0
 20
0.0
 30
0.0
  3
*U29
  1

  0
TEXT
  5
1C49C
  8
0
  6
CONTINUOUS
 62
     3
 10
292.89593019783558
 20
200.5653742300139
 30
0.0
 40
3.0
  1
2
  0
ENDBLK
  5
1C49E
  8
0
  0
BLOCK
  8
0
  2
*U30
 70
     1
 10
0.0
 20
0.0
 30
0.0
  3
*U30
  1

  0
TEXT
  5
1C4A0
  8
0
  6
CONTINUOUS
 62
     3
 10
291.0876920088599
 20
210.27085009884379
 30
0.0
 40
3.0
  1
60∑
  0
ENDBLK
  5
1C4A2
  8
0
  0
BLOCK
  8
0
  2
*U31
 70
     1
 10
0.0
 20
0.0
 30
0.0
  3
*U31
  1

  0
TEXT
  5
1C4A4
  8
0
  6
CONTINUOUS
 62
     3
 10
307.59283191376272
 20
248.05646304151659
 30
0.0
 40
3.0
  1
2
  0
ENDBLK
  5
1C4A6
  8
0
  0
BLOCK
  8
0
  2
*U32
 70
     1
 10
0.0
 20
0.0
 30
0.0
  3
*U32
  1

  0
TEXT
  5
1C4A8
  8
0
  6
CONTINUOUS
 62
     3
 10
297.08269791090282
 20
248.05646304151659
 30
0.0
 40
3.0
  1
5
  0
ENDBLK
  5
1C4AA
  8
0
  0
BLOCK
  8
0
  2
*U33
 70
     1
 10
0.0
 20
0.0
 30
0.0
  3
*U33
  1

  0
TEXT
  5
1C4AC
  8
0
  6
CONTINUOUS
 62
     3
 10
283.4948299452588
 20
247.6564630415165
 30
0.0
 40
3.0
  1
4
  0
ENDBLK
  5
1C4AE
  8
0
  0
BLOCK
  8
0
  2
*U34
 70
     1
 10
0.0
 20
0.0
 30
0.0
  3
*U34
  1

  0
TEXT
  5
1C4B0
  8
0
  6
CONTINUOUS
 62
     3
 10
312.69007155434758
 20
180.39505269758351
 30
0.0
 40
3.0
  1
0.5
 50
90.0
  0
ENDBLK
  5
1C4B2
  8
0
  0
BLOCK
  8
0
  2
*X35
 70
     1
 10
0.0
 20
0.0
 30
0.0
  3
*X35
  1

  0
LINE
  5
1C4B7
  8
0
  6
CONTINUOUS
 62
     0
 10
305.78738865911851
 20
191.06864890793551
 30
0.0
 11
303.17250637354368
 21
193.68353119351031
 31
0.0
  0
LINE
  5
1C4B8
  8
0
  6
CONTINUOUS
 62
     0
 10
305.01869334990482
 20
188.3018103112164
 30
0.0
 11
301.37171624787658
 21
191.94878741324459
 31
0.0
  0
LINE
  5
1C4B9
  8
0
  6
CONTINUOUS
 62
     0
 10
303.76743102362798
 20
186.01753873156051
 30
0.0
 11
299.01565298889312
 21
190.76931676629539
 31
0.0
  0
LINE
  5
1C4BA
  8
0
  6
CONTINUOUS
 62
     0
 10
302.12281586268722
 20
184.12661998656861
 30
0.0
 11
295.4801190829603
 21
190.76931676629539
 31
0.0
  0
LINE
  5
1C4BB
  8
0
  6
CONTINUOUS
 62
     0
 10
300.10264708963928
 20
182.6112548536837
 30
0.0
 11
291.9445851770277
 21
190.76931676629539
 31
0.0
  0
LINE
  5
1C4BC
  8
0
  6
CONTINUOUS
 62
     0
 10
297.669143594285
 20
181.50922444310521
 30
0.0
 11
288.40905127109488
 21
190.76931676629539
 31
0.0
  0
LINE
  5
1C4BD
  8
0
  6
CONTINUOUS
 62
     0
 10
294.69258862887312
 20
180.95024550258449
 30
0.0
 11
282.09432535949293
 21
193.54850877196469
 31
0.0
  0
LINE
  5
1C4BE
  8
0
  6
CONTINUOUS
 62
     0
 10
290.71705427267551
 20
181.3902459528494
 30
0.0
 11
282.53432580975772
 21
189.57297441576711
 31
0.0
  0
ENDBLK
  5
1C4C0
  8
0
  0
BLOCK
  8
0
  2
*X36
 70
     1
 10
0.0
 20
0.0
 30
0.0
  3
*X36
  1

  0
LINE
  5
1C4C5
  8
0
  6
CONTINUOUS
 62
     0
 10
317.34022696970641
 20
238.73538360876501
 30
0.0
 11
315.67490826650891
 21
240.4007023119625
 31
0.0
  0
LINE
  5
1C4C6
  8
0
  6
CONTINUOUS
 62
     0
 10
314.38299275977778
 20
238.1570839127609
 30
0.0
 11
312.63127474229958
 21
239.90880193023909
 31
0.0
  0
LINE
  5
1C4C7
  8
0
  6
CONTINUOUS
 62
     0
 10
315.99605647076328
 20
236.5440202017754
 30
0.0
 11
314.38299275977778
 21
238.1570839127609
 31
0.0
  0
LINE
  5
1C4C8
  8
0
  6
CONTINUOUS
 62
     0
 10
313.08993161952759
 20
235.9146111470782
 30
0.0
 11
310.10384045464309
 21
238.9007023119627
 31
0.0
  0
LINE
  5
1C4C9
  8
0
  6
CONTINUOUS
 62
     0
 10
314.24245411367212
 20
234.7620886529337
 30
0.0
 11
313.08993161952759
 21
235.9146111470782
 31
0.0
  0
LINE
  5
1C4CA
  8
0
  6
CONTINUOUS
 62
     0
 10
311.01709415398642
 20
234.45191470668681
 30
0.0
 11
306.5683065487105
 21
238.9007023119627
 31
0.0
  0
LINE
  5
1C4CB
  8
0
  6
CONTINUOUS
 62
     0
 10
311.53338431654458
 20
233.9356245441285
 30
0.0
 11
311.01709415398648
 21
234.45191470668669
 31
0.0
  0
LINE
  5
1C4CC
  8
0
  6
CONTINUOUS
 62
     0
 10
307.89909210899032
 20
234.0343828457502
 30
0.0
 11
302.78624467598218
 21
239.14723027875829
 31
0.0
  0
LINE
  5
1C4CD
  8
0
  6
CONTINUOUS
 62
     0
 10
302.78624467598212
 20
239.1472302787584
 30
0.0
 11
301.53277264277767
 21
240.40070231196279
 31
0.0
  0
LINE
  5
1C4CE
  8
0
  6
CONTINUOUS
 62
     0
 10
308.82431451941721
 20
233.1091604353233
 30
0.0
 11
307.89909210899032
 21
234.03438284575009
 31
0.0
  0
LINE
  5
1C4CF
  8
0
  6
CONTINUOUS
 62
     0
 10
305.9501517546928
 20
232.44778929411481
 30
0.0
 11
297.99723873684502
 21
240.4007023119627
 31
0.0
  0
LINE
  5
1C4D0
  8
0
  6
CONTINUOUS
 62
     0
 10
302.60700256382671
 20
232.25540457904819
 30
0.0
 11
294.4617048309122
 21
240.4007023119627
 31
0.0
  0
LINE
  5
1C4D1
  8
0
  6
CONTINUOUS
 62
     0
 10
299.26385337296063
 20
232.06301986398159
 30
0.0
 11
291.54815996872031
 21
239.77871326822191
 31
0.0
  0
LINE
  5
1C4D2
  8
0
  6
CONTINUOUS
 62
     0
 10
295.6198573749387
 20
232.17148195607081
 30
0.0
 11
288.89063701904672
 21
238.90070231196279
 31
0.0
  0
LINE
  5
1C4D3
  8
0
  6
CONTINUOUS
 62
     0
 10
291.96528153116827
 20
232.2905238939085
 30
0.0
 11
285.3551031131139
 21
238.90070231196279
 31
0.0
  0
LINE
  5
1C4D4
  8
0
  6
CONTINUOUS
 62
     0
 10
288.31070568739779
 20
232.40956583174619
 30
0.0
 11
281.81956920718119
 21
238.90070231196279
 31
0.0
  0
LINE
  5
1C4D5
  8
0
  6
CONTINUOUS
 62
     0
 10
284.34170885461009
 20
232.84302875860121
 30
0.0
 11
276.78403530124848
 21
240.40070231196279
 31
0.0
  0
LINE
  5
1C4D6
  8
0
  6
CONTINUOUS
 62
     0
 10
279.46904747762341
 20
234.18015622965521
 30
0.0
 11
274.06748092596189
 21
239.5817227813167
 31
0.0
  0
ENDBLK
  5
1C4D8
  8
0
  0
BLOCK
  8
0
  2
*X37
 70
     1
 10
0.0
 20
0.0
 30
0.0
  3
*X37
  1

  0
LINE
  5
1C4E0
  8
0
  6
CONTINUOUS
 62
     0
 10
284.21198095819278
 20
58.068883501431287
 30
0.0
 11
284.29902503864997
 21
57.999742198137817
 31
0.0
  0
LINE
  5
1C4E1
  8
0
  6
CONTINUOUS
 62
     0
 10
284.24789619443641
 20
58.120173093851918
 30
0.0
 11
284.45066942223508
 21
57.959105216870512
 31
0.0
  0
LINE
  5
1C4E2
  8
0
  6
CONTINUOUS
 62
     0
 10
284.28381143067969
 20
58.171462686272889
 30
0.0
 11
284.60231380582019
 21
57.918468235603541
 31
0.0
  0
LINE
  5
1C4E3
  8
0
  6
CONTINUOUS
 62
     0
 10
284.3197266669232
 20
58.222752278693633
 30
0.0
 11
284.7539581894053
 21
57.877831254336229
 31
0.0
  0
LINE
  5
1C4E4
  8
0
  6
CONTINUOUS
 62
     0
 10
284.35564190316649
 20
58.27404187111437
 30
0.0
 11
284.9056025729904
 21
57.837194273069137
 31
0.0
  0
LINE
  5
1C4E5
  8
0
  6
CONTINUOUS
 62
     0
 10
284.39155713941
 20
58.325331463535122
 30
0.0
 11
285.05724695657528
 21
57.796557291801953
 31
0.0
  0
LINE
  5
1C4E6
  8
0
  6
CONTINUOUS
 62
     0
 10
284.42747237565351
 20
58.376621055955972
 30
0.0
 11
285.20889134016051
 21
57.755920310534862
 31
0.0
  0
LINE
  5
1C4E7
  8
0
  6
CONTINUOUS
 62
     0
 10
284.46338761189679
 20
58.427910648376731
 30
0.0
 11
285.3605357237455
 21
57.71528332926755
 31
0.0
  0
LINE
  5
1C4E8
  8
0
  6
CONTINUOUS
 62
     0
 10
284.49930284814019
 20
58.479200240797582
 30
0.0
 11
285.51218010733049
 21
57.674646348000579
 31
0.0
  0
LINE
  5
1C4E9
  8
0
  6
CONTINUOUS
 62
     0
 10
284.53521808438359
 20
58.530489833218333
 30
0.0
 11
285.66382449091572
 21
57.634009366733267
 31
0.0
  0
LINE
  5
1C4EA
  8
0
  6
CONTINUOUS
 62
     0
 10
284.57113332062721
 20
58.58177942563907
 30
0.0
 11
285.81546887450071
 21
57.593372385466289
 31
0.0
  0
LINE
  5
1C4EB
  8
0
  6
CONTINUOUS
 62
     0
 10
284.60704855687061
 20
58.633069018059807
 30
0.0
 11
285.9671132580857
 21
57.552735404198977
 31
0.0
  0
LINE
  5
1C4EC
  8
0
  6
CONTINUOUS
 62
     0
 10
284.64296379311389
 20
58.684358610480778
 30
0.0
 11
286.1187576416707
 21
57.512098422932013
 31
0.0
  0
LINE
  5
1C4ED
  8
0
  6
CONTINUOUS
 62
     0
 10
284.67887902935729
 20
58.735648202901409
 30
0.0
 11
286.27040202525581
 21
57.471461441664701
 31
0.0
  0
LINE
  5
1C4EE
  8
0
  6
CONTINUOUS
 62
     0
 10
284.7147942656008
 20
58.78693779532238
 30
0.0
 11
286.4220464088408
 21
57.430824460397609
 31
0.0
  0
LINE
  5
1C4EF
  8
0
  6
CONTINUOUS
 62
     0
 10
284.75070950184409
 20
58.838227387743018
 30
0.0
 11
286.57369079242602
 21
57.390187479130297
 31
0.0
  0
LINE
  5
1C4F0
  8
0
  6
CONTINUOUS
 62
     0
 10
284.7866247380876
 20
58.889516980163883
 30
0.0
 11
286.72533517601107
 21
57.349550497863333
 31
0.0
  0
LINE
  5
1C4F1
  8
0
  6
CONTINUOUS
 62
     0
 10
284.82253997433111
 20
58.940806572584499
 30
0.0
 11
286.87697955959601
 21
57.308913516596022
 31
0.0
  0
LINE
  5
1C4F2
  8
0
  6
CONTINUOUS
 62
     0
 10
284.8584552105745
 20
58.992096165005478
 30
0.0
 11
287.02862394318117
 21
57.26827653532893
 31
0.0
  0
LINE
  5
1C4F3
  8
0
  6
CONTINUOUS
 62
     0
 10
284.8943704468179
 20
59.043385757426222
 30
0.0
 11
287.18026832676622
 21
57.227639554061618
 31
0.0
  0
LINE
  5
1C4F4
  8
0
  6
CONTINUOUS
 62
     0
 10
284.93028568306119
 20
59.09467534984708
 30
0.0
 11
287.33191271035128
 21
57.187002572794647
 31
0.0
  0
LINE
  5
1C4F5
  8
0
  6
CONTINUOUS
 62
     0
 10
284.9662009193047
 20
59.14596494226771
 30
0.0
 11
287.48355709393638
 21
57.146365591527342
 31
0.0
  0
LINE
  5
1C4F6
  8
0
  6
CONTINUOUS
 62
     0
 10
285.00211615554809
 20
59.197254534688561
 30
0.0
 11
287.63520147752138
 21
57.105728610260371
 31
0.0
  0
LINE
  5
1C4F7
  8
0
  6
CONTINUOUS
 62
     0
 10
285.03803139179161
 20
59.248544127109312
 30
0.0
 11
287.78684586110643
 21
57.065091628993059
 31
0.0
  0
LINE
  5
1C4F8
  8
0
  6
CONTINUOUS
 62
     0
 10
285.07394662803489
 20
59.299833719530277
 30
0.0
 11
287.93849024469148
 21
57.024454647725982
 31
0.0
  0
LINE
  5
1C4F9
  8
0
  6
CONTINUOUS
 62
     0
 10
285.1098618642784
 20
59.351123311950907
 30
0.0
 11
288.09013462827647
 21
56.98381766645889
 31
0.0
  0
LINE
  5
1C4FA
  8
0
  6
CONTINUOUS
 62
     0
 10
285.14577710052191
 20
59.402412904371772
 30
0.0
 11
288.24177901186158
 21
56.943180685191692
 31
0.0
  0
LINE
  5
1C4FB
  8
0
  6
CONTINUOUS
 62
     0
 10
285.18169233676508
 20
59.45370249679263
 30
0.0
 11
288.39342339544669
 21
56.902543703924607
 31
0.0
  0
LINE
  5
1C4FC
  8
0
  6
CONTINUOUS
 62
     0
 10
285.21760757300859
 20
59.504992089213367
 30
0.0
 11
288.54506777903163
 21
56.861906722657409
 31
0.0
  0
LINE
  5
1C4FD
  8
0
  6
CONTINUOUS
 62
     0
 10
285.25352280925199
 20
59.556281681634118
 30
0.0
 11
288.69671216261702
 21
56.82126974139009
 31
0.0
  0
LINE
  5
1C4FE
  8
0
  6
CONTINUOUS
 62
     0
 10
285.2894380454955
 20
59.607571274054969
 30
0.0
 11
288.84835654620179
 21
56.780632760123133
 31
0.0
  0
LINE
  5
1C4FF
  8
0
  6
CONTINUOUS
 62
     0
 10
285.32535328173878
 20
59.658860866475827
 30
0.0
 11
289.00000092978678
 21
56.739995778855921
 31
0.0
  0
LINE
  5
1C500
  8
0
  6
CONTINUOUS
 62
     0
 10
285.36126851798218
 20
59.710150458896571
 30
0.0
 11
289.151645313372
 21
56.699358797588729
 31
0.0
  0
LINE
  5
1C501
  8
0
  6
CONTINUOUS
 62
     0
 10
285.39718375422569
 20
59.761440051317322
 30
0.0
 11
289.30328969695699
 21
56.658721816321638
 31
0.0
  0
LINE
  5
1C502
  8
0
  6
CONTINUOUS
 62
     0
 10
285.4330989904692
 20
59.812729643738074
 30
0.0
 11
289.45493408054222
 21
56.618084835054447
 31
0.0
  0
LINE
  5
1C503
  8
0
  6
CONTINUOUS
 62
     0
 10
285.46901422671249
 20
59.864019236158917
 30
0.0
 11
289.60657846412721
 21
56.577447853787241
 31
0.0
  0
LINE
  5
1C504
  8
0
  6
CONTINUOUS
 62
     0
 10
285.504929462956
 20
59.915308828579668
 30
0.0
 11
289.7582228477122
 21
56.53681087252005
 31
0.0
  0
LINE
  5
1C505
  8
0
  6
CONTINUOUS
 62
     0
 10
286.221466598039
 20
59.425963321075187
 30
0.0
 11
289.90986723129731
 21
56.496173891252958
 31
0.0
  0
LINE
  5
1C506
  8
0
  6
CONTINUOUS
 62
     0
 10
287.0698626070772
 20
58.831878992180691
 30
0.0
 11
290.06151161488242
 21
56.455536909985767
 31
0.0
  0
LINE
  5
1C507
  8
0
  6
CONTINUOUS
 62
     0
 10
287.91825861611539
 20
58.237794663286081
 30
0.0
 11
290.21315599846741
 21
56.414899928718683
 31
0.0
  0
LINE
  5
1C508
  8
0
  6
CONTINUOUS
 62
     0
 10
288.76665462515371
 20
57.643710334391471
 30
0.0
 11
290.36480038205252
 21
56.374262947451477
 31
0.0
  0
LINE
  5
1C509
  8
0
  6
CONTINUOUS
 62
     0
 10
289.6150506341919
 20
57.049626005496862
 30
0.0
 11
290.51644476563752
 21
56.333625966184393
 31
0.0
  0
LINE
  5
1C50A
  8
0
  6
CONTINUOUS
 62
     0
 10
290.4634466432301
 20
56.455541676602252
 30
0.0
 11
290.66808914922262
 21
56.292988984917081
 31
0.0
  0
ENDBLK
  5
1C50C
  8
0
  0
BLOCK
  8
0
  2
*U38
 70
     1
 10
0.0
 20
0.0
 30
0.0
  3
*U38
  1

  0
TEXT
  5
1C514
  8
0
  6
CONTINUOUS
 62
     3
 10
318.54112939102163
 20
201.10627229884969
 30
0.0
 40
3.0
  1
2
  0
ENDBLK
  5
1C516
  8
0
  0
BLOCK
  8
0
  2
*U39
 70
     1
 10
0.0
 20
0.0
 30
0.0
  3
*U39
  1

  0
TEXT
  5
1C518
  8
0
  6
CONTINUOUS
 62
     3
 10
308.03099538816173
 20
201.10627229884969
 30
0.0
 40
3.0
  1
5
  0
ENDBLK
  5
1C51A
  8
0
  0
BLOCK
  8
0
  2
*U40
 70
     1
 10
0.0
 20
0.0
 30
0.0
  3
*U40
  1

  0
TEXT
  5
1C51C
  8
0
  6
CONTINUOUS
 62
     3
 10
297.54112939102163
 20
200.70627229884971
 30
0.0
 40
3.0
  1
2
  0
ENDBLK
  5
1C51E
  8
0
  0
BLOCK
  8
0
  2
*X41
 70
     1
 10
0.0
 20
0.0
 30
0.0
  3
*X41
  1

  0
LINE
  5
1C523
  8
0
  6
CONTINUOUS
 62
     0
 10
321.7755324779119
 20
187.42524405246769
 30
0.0
 11
325.2106607424098
 21
190.86037231696571
 31
0.0
  0
LINE
  5
1C524
  8
0
  6
CONTINUOUS
 62
     0
 10
325.2106607424098
 20
190.86037231696571
 30
0.0
 11
327.80079999473969
 21
193.45051156929571
 31
0.0
  0
LINE
  5
1C525
  8
0
  6
CONTINUOUS
 62
     0
 10
320.83264584821552
 20
186.4823574227714
 30
0.0
 11
321.77553247791172
 21
187.4252440524676
 31
0.0
  0
LINE
  5
1C526
  8
0
  6
CONTINUOUS
 62
     0
 10
318.05971604579207
 20
187.2449615262808
 30
0.0
 11
322.78142122589691
 21
191.96666670638561
 31
0.0
  0
LINE
  5
1C527
  8
0
  6
CONTINUOUS
 62
     0
 10
323.29589814385218
 20
192.4811436243408
 30
0.0
 11
324.21924539089781
 21
193.40449087138651
 31
0.0
  0
LINE
  5
1C528
  8
0
  6
CONTINUOUS
 62
     0
 10
316.27656621865719
 20
185.4618116991459
 30
0.0
 11
318.05971604579207
 21
187.24496152628069
 31
0.0
  0
LINE
  5
1C529
  8
0
  6
CONTINUOUS
 62
     0
 10
315.75358604541958
 20
188.47436543184091
 30
0.0
 11
319.2297321828745
 21
191.95051156929591
 31
0.0
  0
LINE
  5
1C52A
  8
0
  6
CONTINUOUS
 62
     0
 10
312.52515369395582
 20
185.24593308037711
 30
0.0
 11
315.75358604541952
 21
188.47436543184091
 31
0.0
  0
LINE
  5
1C52B
  8
0
  6
CONTINUOUS
 62
     0
 10
314.23250926333651
 20
190.4888225556906
 30
0.0
 11
316.07618000657442
 21
192.33249329892851
 31
0.0
  0
LINE
  5
1C52C
  8
0
  6
CONTINUOUS
 62
     0
 10
308.8893681271378
 20
185.14568141949189
 30
0.0
 11
314.2325092633364
 21
190.48882255569049
 31
0.0
  0
LINE
  5
1C52D
  8
0
  6
CONTINUOUS
 62
     0
 10
305.46536560350449
 20
185.25721280179141
 30
0.0
 11
313.65866437100908
 21
193.45051156929591
 31
0.0
  0
LINE
  5
1C52E
  8
0
  6
CONTINUOUS
 62
     0
 10
302.04136307987147
 20
185.3687441840911
 30
0.0
 11
310.12313046507631
 21
193.45051156929591
 31
0.0
  0
LINE
  5
1C52F
  8
0
  6
CONTINUOUS
 62
     0
 10
298.6173605562384
 20
185.4802755663907
 30
0.0
 11
306.58759655914361
 21
193.45051156929591
 31
0.0
  0
LINE
  5
1C530
  8
0
  6
CONTINUOUS
 62
     0
 10
302.67524185671112
 20
193.0736907727962
 30
0.0
 11
302.7252041073433
 21
193.1236530234284
 31
0.0
  0
LINE
  5
1C531
  8
0
  6
CONTINUOUS
 62
     0
 10
295.45038022605922
 20
185.8488291421443
 30
0.0
 11
301.55206265321078
 21
191.95051156929591
 31
0.0
  0
LINE
  5
1C532
  8
0
  6
CONTINUOUS
 62
     0
 10
292.67613782715682
 20
186.6101206491746
 30
0.0
 11
298.01652874727807
 21
191.95051156929591
 31
0.0
  0
LINE
  5
1C533
  8
0
  6
CONTINUOUS
 62
     0
 10
289.90189542825448
 20
187.37141215620511
 30
0.0
 11
294.99814213297202
 21
192.46765886092251
 31
0.0
  0
LINE
  5
1C534
  8
0
  6
CONTINUOUS
 62
     0
 10
287.63915709745061
 20
188.64420773133389
 30
0.0
 11
292.44546093541271
 21
193.450511569296
 31
0.0
  0
LINE
  5
1C535
  8
0
  6
CONTINUOUS
 62
     0
 10
285.96431848301302
 20
190.50490302282901
 30
0.0
 11
288.90992702948
 21
193.450511569296
 31
0.0
  0
LINE
  5
1C536
  8
0
  6
CONTINUOUS
 62
     0
 10
284.95235707577291
 20
193.02847552152161
 30
0.0
 11
285.37439312354718
 21
193.45051156929591
 31
0.0
  0
ENDBLK
  5
1C538
  8
0
  0
BLOCK
  8
0
  2
*U42
 70
     1
 10
0.0
 20
0.0
 30
0.0
  3
*U42
  1

  0
TEXT
  5
1C594
  8
0
  6
CONTINUOUS
 10
149.78577193199641
 20
50.209699189535151
 30
0.0
 40
3.0
  1
Techniks Inc.
  0
TEXT
  5
1C595
  8
0
  6
CONTINUOUS
 10
150.2357719319964
 20
45.209699189535137
 30
0.0
 40
3.0
  1
     9930 East 56th Street
  0
TEXT
  5
1C596
  8
0
  6
CONTINUOUS
 10
150.2357719319964
 20
40.201608638354038
 30
0.0
 40
3.0
  1
     Indianapolis, IN 46236
  0
TEXT
  5
1C597
  8
0
  6
CONTINUOUS
 10
150.2357719319964
 20
35.198117933054803
 30
0.0
 40
3.0
  1
     800.597.3921
  0
TEXT
  5
1C598
  8
0
  6
CONTINUOUS
 10
150.2357719319964
 20
30.1981179330548
 30
0.0
 40
3.0
  1
     www.techniksusa.com
  0
ENDBLK
  5
1C59A
  8
0
  0
ENDSEC
  0
SECTION
  2
ENTITIES
  0
TEXT
  5
1B1DC
  8
0
 62
     7
 10
199.72929511267941
 20
1.4855947851882541
 30
0.0
 40
4.0
  1
LOT NO :
  0
LINE
  5
1B1DD
  8
0
 62
     2
 10
198.8597031580839
 20
16.5
 30
0.0
 11
269.30000000000001
 21
16.5
 31
0.0
  0
LINE
  5
1B1DE
  8
0
 62
     2
 10
349.2999999999999
 20
7.0
 30
0.0
 11
198.8597031580839
 21
7.0
 31
0.0
  0
POLYLINE
  5
1B1DF
  8
0
 66
     1
 10
0.0
 20
0.0
 30
0.0
 40
1.0
 41
1.0
  0
VERTEX
  5
1C53C
  8
0
 10
0.0
 20
241.5
 30
0.0
  0
VERTEX
  5
1C53D
  8
0
 10
349.78500327820348
 20
241.5
 30
0.0
  0
SEQEND
  5
1C53E
  8
0
  0
POLYLINE
  5
1B1E0
  8
0
 66
     1
 10
0.0
 20
0.0
 30
0.0
 40
0.5
 41
0.5
  0
VERTEX
  5
1C53F
  8
0
 10
349.2999999999999
 20
24.0
 30
0.0
  0
VERTEX
  5
1C540
  8
0
 10
0.5
 20
24.0
 30
0.0
  0
SEQEND
  5
1C541
  8
0
  0
POLYLINE
  5
1B1E1
  8
0
 66
     1
 10
0.0
 20
0.0
 30
0.0
 40
1.0
 41
1.0
  0
VERTEX
  5
1C542
  8
0
 10
0.0
 20
0.0
 30
0.0
  0
VERTEX
  5
1C543
  8
0
 10
349.80000000000001
 20
0.0
 30
0.0
  0
SEQEND
  5
1C544
  8
0
  0
POLYLINE
  5
1B1E2
  8
0
 66
     1
 10
0.0
 20
0.0
 30
0.0
 40
1.0
 41
1.0
  0
VERTEX
  5
1C545
  8
0
 10
0.5
 20
241.0
 30
0.0
  0
VERTEX
  5
1C546
  8
0
 10
0.5
 20
-0.5
 30
0.0
  0
SEQEND
  5
1C547
  8
0
  0
TEXT
  5
1B1E3
  8
0
  6
CONTINUOUS
 62
     3
 10
19.488127647663081
 20
15.53735654761635
 30
0.0
 40
4.0
  1
HYDRAULIC CHUCK
  0
LINE
  5
1B1E4
  8
0
 62
     2
 10
150.9402968419158
 20
12.5
 30
0.0
 11
0.5
 21
12.5
 31
0.0
  0
TEXT
  5
1B1E5
  8
0
 62
     7
 10
1.7756180239680359
 20
9.4939908967098745
 30
0.0
 40
2.0
  1
KIND
  0
TEXT
  5
1B1E7
  8
0
 62
     7
 10
1.6906758171485301
 20
20.702138631114959
 30
0.0
 40
2.0
  1
DESCRIPTION
  0
LINE
  5
1B1E8
  8
0
 62
     2
 10
106.5
 20
24.0
 30
0.0
 11
106.5
 21
0.0
 31
0.0
  0
LINE
  5
1B1E9
  8
0
 62
     2
 10
79.5
 20
24.0
 30
0.0
 11
79.5
 21
0.0
 31
0.0
  0
TEXT
  5
1B1EA
  8
0
  6
CONTINUOUS
 62
     3
 10
90.015379108354637
 20
15.03976123407665
 30
0.0
 40
4.0
  1
-
  0
TEXT
  5
1B1EB
  8
0
 62
     7
 10
80.326115960252537
 20
9.6268716546485393
 30
0.0
 40
2.0
  1
HARDNESS
  0
TEXT
  5
1B1EC
  8
0
 62
     7
 10
107.4355084051569
 20
9.4608489407827392
 30
0.0
 40
2.0
  1
ORDER MAKER
  0
TEXT
  5
1B1ED
  8
0
 62
     7
 10
80.390774020364447
 20
20.753906392070579
 30
0.0
 40
2.0
  1
MATERIAL
  0
TEXT
  5
1B1EE
  8
0
 62
     7
 10
107.6221638096294
 20
20.571653327650889
 30
0.0
 40
2.0
  1
SURFACE TREATMENT
  0
TEXT
  5
1B1EF
  8
0
 62
     3
 10
170.16548944804501
 20
18.268672151280612
 30
0.0
 40
4.0
  1
-
  0
LINE
  5
1B1F0
  8
0
 62
     2
 10
198.8597031580839
 20
24.0
 30
0.0
 11
198.8597031580839
 21
0.0
 31
0.0
  0
TEXT
  5
1B1F1
  8
0
 62
     7
 10
151.84057408933469
 20
19.15847313115523
 30
0.0
 40
2.0
  1
DATE
  0
LINE
  5
1B1F2
  8
0
 62
     2
 10
150.9402968419158
 20
24.0
 30
0.0
 11
150.9402968419158
 21
0.0
 31
0.0
  0
TEXT
  5
1B1F3
  8
0
 62
     7
 10
171.570842804861
 20
7.5113250446388511
 30
0.0
 40
3.0
  1
-
  0
LINE
  5
1B1F4
  8
0
 62
     2
 10
150.9402968419158
 20
16.5
 30
0.0
 11
198.8597031580839
 21
16.5
 31
0.0
  0
TEXT
  5
1B1F5
  8
0
  6
CONTINUOUS
 62
     3
 10
51.985782108721878
 20
232.0612640121638
 30
0.0
 40
2.0
  1
+0.25
  0
TEXT
  5
1B1F6
  8
0
  6
CONTINUOUS
 62
     7
 10
46.077913137616633
 20
236.6565042912882
 30
0.0
 40
3.0
  1
 100-250
  0
TEXT
  5
1B1F7
  8
0
  6
CONTINUOUS
 62
     3
 10
52.19467757613824
 20
225.79696189791659
 30
0.0
 40
2.0
  1
+0.0
  0
TEXT
  5
1B1F8
  8
0
  6
CONTINUOUS
 62
     3
 10
52.19467757613824
 20
223.2912414152556
 30
0.0
 40
2.0
  1
-0.25
  0
TEXT
  5
1B1F9
  8
0
  6
CONTINUOUS
 62
     3
 10
51.985782108721878
 20
229.55554352950281
 30
0.0
 40
2.0
  1
-0.0
  0
TEXT
  5
1B1FA
  8
0
  6
CONTINUOUS
 62
     3
 10
50.836857037932297
 20
217.75777502163669
 30
0.0
 40
3.0
  1
%%P0.25
  0
LINE
  5
1B1FB
  8
0
  6
CONTINUOUS
 62
     2
 10
10.5
 20
235.09999999999991
 30
0.0
 11
80.5
 21
235.09999999999991
 31
0.0
  0
LINE
  5
1B1FC
  8
0
  6
CONTINUOUS
 62
     2
 10
10.5
 20
222.2999999999999
 30
0.0
 11
80.5
 21
222.2999999999999
 31
0.0
  0
LINE
  5
1B1FD
  8
0
  6
CONTINUOUS
 62
     2
 10
10.5
 20
228.69999999999999
 30
0.0
 11
80.5
 21
228.69999999999979
 31
0.0
  0
LINE
  5
1B1FE
  8
0
  6
CONTINUOUS
 62
     2
 10
0.5
 20
216.12385070146411
 30
0.0
 11
80.5
 21
216.12385070146411
 31
0.0
  0
TEXT
  5
1B1FF
  8
0
  6
CONTINUOUS
 10
13.985369668585919
 20
236.50445557104061
 30
0.0
 40
3.0
  1
备盒 
  0
TEXT
  5
1B200
  8
0
  6
CONTINUOUS
 10
13.985369668585919
 20
217.85439130880491
 30
0.0
 40
3.0
  1
傈厘
  0
TEXT
  5
1B201
  8
0
  6
CONTINUOUS
 10
13.985369668585919
 20
224.02224636897401
 30
0.0
 40
3.0
  1
寇版
  0
TEXT
  5
1B202
  8
0
  6
CONTINUOUS
 10
13.985369668585919
 20
230.26335097000739
 30
0.0
 40
3.0
  1
郴版
  0
LINE
  5
1B203
  8
0
  6
CONTINUOUS
 62
     2
 10
10.5
 20
216.12385070146411
 30
0.0
 11
10.5
 21
241.5
 31
0.0
  0
TEXT
  5
1B204
  8
0
  6
CONTINUOUS
 10
3.1647676081701088
 20
218.2742179534373
 30
0.0
 40
3.0
  1
mm
  0
TEXT
  5
1B205
  8
0
  6
CONTINUOUS
 10
4.215931991601451
 20
222.24619052605519
 30
0.0
 40
3.0
  1
瞒
  0
TEXT
  5
1B206
  8
0
  6
CONTINUOUS
 10
4.215931991601451
 20
235.74619052605519
 30
0.0
 40
3.0
  1
扁
  0
TEXT
  5
1B207
  8
0
  6
CONTINUOUS
 10
4.215931991601451
 20
226.74619052605519
 30
0.0
 40
3.0
  1
傍
  0
TEXT
  5
1B208
  8
0
  6
CONTINUOUS
 10
4.215931991601451
 20
231.24619052605519
 30
0.0
 40
3.0
  1
夯
  0
LINE
  5
1B209
  8
0
  6
CONTINUOUS
 62
     2
 10
24.171359750135931
 20
228.92385070146429
 30
0.0
 11
24.171359750135931
 21
216.12385070146411
 31
0.0
  0
LINE
  5
1B20A
  8
0
  6
CONTINUOUS
 62
     2
 10
24.171359750135931
 20
241.5
 30
0.0
 11
24.171359750135931
 21
222.2999999999999
 31
0.0
  0
LINE
  5
1B20B
  8
0
  6
CONTINUOUS
 62
     2
 10
33.602988519801563
 20
241.5
 30
0.0
 11
33.602988519801563
 21
216.12385070146411
 31
0.0
  0
LINE
  5
1B20C
  8
0
  6
CONTINUOUS
 62
     2
 10
47.598978969360587
 20
241.5
 30
0.0
 11
47.598978969360587
 21
216.12385070146411
 31
0.0
  0
TEXT
  5
1B20D
  8
0
  6
CONTINUOUS
 62
     3
 10
25.45606948151795
 20
217.75777502163669
 30
0.0
 40
3.0
  1
%%P0.1
  0
TEXT
  5
1B20E
  8
0
  6
CONTINUOUS
 62
     3
 10
26.500545980409019
 20
223.1868365716214
 30
0.0
 40
2.0
  1
-0.1
  0
TEXT
  5
1B20F
  8
0
  6
CONTINUOUS
 62
     3
 10
37.572000724330337
 20
223.1868365716214
 30
0.0
 40
2.0
  1
-0.15
  0
TEXT
  5
1B210
  8
0
  6
CONTINUOUS
 62
     3
 10
36.318628758022903
 20
217.75777502163669
 30
0.0
 40
3.0
  1
%%P0.15
  0
TEXT
  5
1B211
  8
0
  6
CONTINUOUS
 62
     7
 10
34.36026770507965
 20
236.6565042912882
 30
0.0
 40
3.0
  1
50-100
  0
TEXT
  5
1B212
  8
0
  6
CONTINUOUS
 62
     3
 10
26.396098246700831
 20
232.0612640121638
 30
0.0
 40
2.0
  1
+0.1
  0
TEXT
  5
1B213
  8
0
  6
CONTINUOUS
 62
     7
 10
24.79814577365142
 20
236.6565042912882
 30
0.0
 40
3.0
  1
1-50
  0
TEXT
  5
1B214
  8
0
  6
CONTINUOUS
 62
     3
 10
26.500545980409019
 20
225.69255705428259
 30
0.0
 40
2.0
  1
+0.0
  0
TEXT
  5
1B215
  8
0
  6
CONTINUOUS
 62
     3
 10
26.500545980409019
 20
229.55554352950281
 30
0.0
 40
2.0
  1
-0.0
  0
TEXT
  5
1B216
  8
0
  6
CONTINUOUS
 62
     3
 10
37.572000724330337
 20
232.0612640121638
 30
0.0
 40
2.0
  1
+0.15
  0
TEXT
  5
1B217
  8
0
  6
CONTINUOUS
 62
     3
 10
37.572000724330337
 20
229.55554352950281
 30
0.0
 40
2.0
  1
-0.0
  0
TEXT
  5
1B218
  8
0
  6
CONTINUOUS
 62
     3
 10
37.572000724330337
 20
225.69255705428259
 30
0.0
 40
2.0
  1
+0.0
  0
LINE
  5
1B219
  8
0
  6
CONTINUOUS
 62
     2
 10
80.5
 20
241.5
 30
0.0
 11
80.5
 21
216.12385070146411
 31
0.0
  0
LINE
  5
1B21A
  8
0
  6
CONTINUOUS
 62
     2
 10
63.4750269492854
 20
241.5
 30
0.0
 11
63.4750269492854
 21
216.12385070146411
 31
0.0
  0
TEXT
  5
1B21B
  8
0
  6
CONTINUOUS
 62
     3
 10
67.548486887522358
 20
217.75777502163669
 30
0.0
 40
3.0
  1
%%P0.35
  0
TEXT
  5
1B21C
  8
0
  6
CONTINUOUS
 62
     3
 10
69.010754321246168
 20
223.2912414152556
 30
0.0
 40
2.0
  1
-0.35
  0
TEXT
  5
1B21D
  8
0
  6
CONTINUOUS
 62
     7
 10
64.371168366811617
 20
236.6565042912882
 30
0.0
 40
3.0
  1
250-500
  0
TEXT
  5
1B21E
  8
0
  6
CONTINUOUS
 62
     3
 10
68.945115844585189
 20
232.0612640121638
 30
0.0
 40
2.0
  1
+0.35
  0
TEXT
  5
1B21F
  8
0
  6
CONTINUOUS
 62
     3
 10
69.010754321246168
 20
225.79696189791659
 30
0.0
 40
2.0
  1
+0.0
  0
TEXT
  5
1B220
  8
0
  6
CONTINUOUS
 62
     3
 10
68.945115844585189
 20
229.55554352950281
 30
0.0
 40
2.0
  1
-0.0
  0
POLYLINE
  5
1B221
  8
0
 66
     1
 10
0.0
 20
0.0
 30
0.0
 40
1.0
 41
1.0
  0
VERTEX
  5
1C548
  8
0
 10
349.2999999999999
 20
0.0
 30
0.0
  0
VERTEX
  5
1C549
  8
0
 10
349.2999999999999
 20
242.0
 30
0.0
  0
SEQEND
  5
1C54A
  8
0
  0
TEXT
  5
1B222
  8
0
 62
     7
 10
290.04549776086878
 20
2.2574114378329559
 30
0.0
 40
2.0
  1
CUTTING SIZE :
  0
LINE
  5
1B223
  8
0
 62
     2
 10
289.30000000000001
 20
24.25
 30
0.0
 11
289.30000000000001
 21
7.0
 31
0.0
  0
LINE
  5
1B224
  8
0
 62
     2
 10
269.30000000000001
 20
24.25
 30
0.0
 11
269.30000000000001
 21
7.0
 31
0.0
  0
TEXT
  5
1B225
  8
0
  6
CONTINUOUS
 62
     7
 10
206.56099010974319
 20
17.658983523781782
 30
0.0
 40
4.0
  1
SSK CONTROL NUMBER
  0
TEXT
  5
1B226
  8
0
 62
     7
 10
269.63681101545131
 20
1.3732767948552
 30
0.0
 40
4.0
  1
1 : 1
  0
LINE
  5
1B227
  8
0
 62
     2
 10
254.30000000000001
 20
7.0
 30
0.0
 11
254.30000000000001
 21
0.0
 31
0.0
  0
TEXT
  5
1B228
  8
0
 62
     7
 10
254.57527705715231
 20
2.2699550004307412
 30
0.0
 40
2.0
  1
SCALE
  0
LINE
  5
1B229
  8
0
 62
     2
 10
289.30000000000001
 20
7.0
 30
0.0
 11
289.30000000000001
 21
0.0
 31
0.0
  0
LINE
  5
1B22A
  8
0
 62
     2
 10
329.30000000000001
 20
24.25
 30
0.0
 11
329.30000000000001
 21
7.0
 31
0.0
  0
LINE
  5
1B22B
  8
0
 62
     2
 10
309.2999999999999
 20
24.25
 30
0.0
 11
309.2999999999999
 21
7.0
 31
0.0
  0
TEXT
  5
1B22C
  8
0
 62
     7
 10
308.61711858122322
 20
1.641182029994865
 30
0.0
 40
3.1360000000000001
  1
-
  0
TEXT
  5
1B22D
  8
0
 62
     7
 10
310.26938148685667
 20
20.883893321049179
 30
0.0
 40
2.0
  1
CHECK
  0
TEXT
  5
1B22E
  8
0
 62
     7
 10
330.49033471004373
 20
20.883893321049179
 30
0.0
 40
2.0
  1
APPROVE
  0
TEXT
  5
1B22F
  8
0
 62
     7
 10
287.87643544357428
 20
236.5401664710821
 30
0.0
 40
2.5
  1
REVISIONS
  0
LINE
  5
1B230
  8
0
  6
CONTINUOUS
 62
     2
 10
269.30000000000001
 20
235.09999999999991
 30
0.0
 11
349.2999999999999
 21
235.09999999999991
 31
0.0
  0
LINE
  5
1B231
  8
0
  6
CONTINUOUS
 62
     2
 10
269.30000000000001
 20
228.69999999999911
 30
0.0
 11
349.2999999999999
 21
228.69999999999891
 31
0.0
  0
LINE
  5
1B232
  8
0
  6
CONTINUOUS
 62
     2
 10
269.30000000000001
 20
222.2999999999999
 30
0.0
 11
349.2999999999999
 21
222.2999999999999
 31
0.0
  0
LINE
  5
1B233
  8
0
  6
CONTINUOUS
 62
     2
 10
269.30000000000001
 20
216.12385070146411
 30
0.0
 11
349.2999999999999
 21
216.12385070146411
 31
0.0
  0
TEXT
  5
1B234
  8
0
 62
     7
 10
271.36049426856789
 20
224.0855929990733
 30
0.0
 40
2.5
  1
2.
  0
LINE
  5
1B235
  8
0
 62
     2
 10
269.30000000000001
 20
241.5
 30
0.0
 11
269.30000000000001
 21
216.12385070146411
 31
0.0
  0
LINE
  5
1B236
  8
0
 62
     2
 10
275.30000000000001
 20
241.5
 30
0.0
 11
275.29999999999973
 21
216.12385070146411
 31
0.0
  0
TEXT
  5
1B237
  8
0
 62
     7
 10
271.36049426856789
 20
218.24007257054271
 30
0.0
 40
2.5
  1
3.
  0
TEXT
  5
1B238
  8
0
 62
     7
 10
270.34697788810348
 20
236.7501487527704
 30
0.0
 40
2.5
  1
NO.
  0
TEXT
  5
1B239
  8
0
 62
     7
 10
271.36049426856789
 20
230.79486807554889
 30
0.0
 40
2.5
  1
1.
  0
LINE
  5
1B23A
  8
0
 62
     2
 10
317.30000000000001
 20
241.5
 30
0.0
 11
317.30000000000001
 21
216.12385070146411
 31
0.0
  0
TEXT
  5
1B23B
  8
0
 62
     7
 10
320.14935744422269
 20
236.5401664710821
 30
0.0
 40
2.5
  1
DATE
  0
LINE
  5
1B23C
  8
0
 62
     2
 10
331.30000000000001
 20
241.5
 30
0.0
 11
331.30000000000001
 21
216.12385070146411
 31
0.0
  0
TEXT
  5
1B23D
  8
0
 62
     7
 10
333.83882714560201
 20
236.6451559764227
 30
0.0
 40
2.5
  1
DEVISER
  0
TEXT
  5
1B23E
  8
0
 62
     3
 10
265.187548430493
 20
27.127590477055271
 30
0.0
 40
3.0
  1
3.ANGLES  %%P0%%D15'
  0
TEXT
  5
1B23F
  8
0
 62
     3
 10
265.187548430493
 20
38.051021325782813
 30
0.0
 40
3.0
  1
1.ROUND  R=0.4
  0
TEXT
  5
1B240
  8
0
 62
     3
 10
265.187548430493
 20
32.510087232807336
 30
0.0
 40
3.0
  1
2.BREAK SHARP CORNERS  0.2*45%%D
  0
TEXT
  5
1B241
  8
0
 62
     3
 10
264.54916131191339
 20
44.000081334326978
 30
0.0
 40
4.0
  1
NOTE
  0
TEXT
  5
1B242
  8
0
 62
     7
 10
270.83722662870952
 20
20.746941907216179
 30
0.0
 40
2.0
  1
DESIGN
  0
TEXT
  5
1B243
  8
0
 62
     7
 10
290.26938148685662
 20
20.883893321049179
 30
0.0
 40
2.0
  1
CHECK
  0
TEXT
  5
1B245
  8
0
  6
CONTINUOUS
 62
     3
 10
90.015379108354637
 20
3.468382264738465
 30
0.0
 40
4.0
  1
-
  0
TEXT
  5
1B246
  8
0
  6
CONTINUOUS
 62
     3
 10
114.0478918479656
 20
15.24946032825591
 30
0.0
 40
4.0
  1
SHOT BLAST
  0
TEXT
  5
1B247
  8
0
  6
CONTINUOUS
 62
     3
 10
126.827723857951
 20
3.468382264738465
 30
0.0
 40
4.0
  1
-
  0
LINE
  5
1B249
  8
0
  6
HIDDEN
 62
     3
 10
161.0542774279734
 20
140.50615417661871
 30
0.0
 11
160.88319149674811
 21
138.55063303444891
 31
0.0
1001
ACAD
1000
ASC_BOUNDS
1002
{
1070
    19
1002
}
  0
LINE
  5
1B24A
  8
0
  6
CONTINUOUS
 62
     7
 10
140.05785251181851
 20
146.95727730105
 30
0.0
 11
75.513545627960866
 21
137.54456649429301
 31
0.0
1001
ACAD
1000
ASC_BOUNDS
1002
{
1070
    19
1002
}
  0
LINE
  5
1B24B
  8
0
  6
HIDDEN
 62
     3
 10
155.0078525118183
 20
140.58927288033999
 30
0.0
 11
155.0078525118181
 21
132.2822773010501
 31
0.0
1001
ACAD
1000
ASC_BOUNDS
1002
{
1070
    19
1002
}
  0
ARC
  5
1B24C
  8
0
  6
HIDDEN
 62
     3
 10
154.03105019425439
 20
138.13097284906291
 30
0.0
 40
4.2793490506807217
 50
1.9767968154087501
 51
52.132883937058438
  0
LINE
  5
1B24D
  8
0
  6
HIDDEN
 62
     3
 10
161.05427742797289
 20
140.5061541766182
 30
0.0
 11
160.0791974861763
 21
139.11359570132689
 31
0.0
  0
LINE
  5
1B24E
  8
0
  6
CENTER
 62
     2
 10
156.65785251181839
 20
151.94904482056211
 30
0.0
 11
156.65785251181879
 21
132.2822773010501
 31
0.0
1001
ACAD
1000
ASC_BOUNDS
1002
{
1070
    19
1002
}
  0
LINE
  5
1B250
  8
0
  6
CENTER
 62
     2
 10
162.11286197853681
 20
137.6896084935866
 30
0.0
 11
142.05785251181851
 21
151.73227730105
 31
0.0
  0
ARC
  5
1B252
  8
0
  6
CONTINUOUS
 62
     7
 10
75.657852511818419
 20
136.55503351188599
 30
0.0
 40
1.0
 50
98.297144436305786
 51
180.0
1001
ACAD
1000
ASC_BOUNDS
1002
{
1070
    19
1002
}
  0
LINE
  5
1B253
  8
0
  6
HIDDEN
 62
     3
 10
75.097192133149292
 20
133.67161733615939
 30
0.0
 11
75.769624226780707
 21
133.2833884858897
 31
0.0
  0
ARC
  5
1B254
  8
0
  6
CONTINUOUS
 62
     7
 10
75.657852511818419
 20
112.909521090214
 30
0.0
 40
1.0
 50
180.0
 51
261.70285556369419
1001
ACAD
1000
ASC_BOUNDS
1002
{
1070
    19
1002
}
  0
DIMENSION
  5
1B255
  8
0
  6
CONTINUOUS
  2
*D21
 10
140.05785251181851
 20
78.300768963422001
 30
0.0
 11
107.35785251181839
 21
80.400768963421996
 31
0.0
 70
     0
 13
74.657852511818405
 23
112.909521090214
 33
0.0
 14
140.05785251181851
 24
102.5072773010499
 34
0.0
1001
ACAD
1000
DSTYLE
1002
{
1070
   287
1070
     2
1070
    72
1070
     0
1070
    71
1070
     0
1070
    42
1040
0.6
1070
    43
1040
1.0
1070
    44
1040
1.0
1070
    47
1040
0.0
1070
    48
1040
0.2
1070
    73
1070
     0
1070
   140
1040
3.0
1070
   141
1040
-0.35
1070
   146
1040
0.7
1070
   147
1040
0.6
1070
   178
1070
     3
1070
   179
1070
     8
1070
   271
1070
     8
1070
   272
1070
     8
1070
   275
1070
     1
1070
   283
1070
     0
1070
   284
1070
     8
1070
   289
1070
     2
1002
}
  0
LINE
  5
1B256
  8
0
  6
CENTER
 62
     2
 10
72.536309411740604
 20
124.73227730105
 30
0.0
 11
232.05785251181851
 21
124.73227730105
 31
0.0
  0
DIMENSION
  5
1B257
  8
0
  6
CONTINUOUS
  2
*D22
 10
230.05785251181851
 20
70.300768963422001
 30
0.0
 11
152.35785251181841
 21
72.400768963421996
 31
0.0
 70
     0
 13
74.657852511818405
 23
112.909521090214
 33
0.0
 14
230.05785251181851
 24
92.321438633499042
 34
0.0
1001
ACAD
1000
DSTYLE
1002
{
1070
   287
1070
     2
1070
    42
1040
0.6
1070
    43
1040
1.0
1070
    44
1040
1.0
1070
    47
1040
0.1
1070
    48
1040
0.1
1070
    73
1070
     0
1070
   140
1040
3.0
1070
   141
1040
-1.0
1070
   146
1040
0.7
1070
   147
1040
0.6
1070
   178
1070
     3
1070
   271
1070
     8
1070
   272
1070
     8
1070
   275
1070
     1
1070
   283
1070
     0
1070
   284
1070
     8
1070
   289
1070
     2
1002
}
  0
LINE
  5
1B258
  8
0
  6
CONTINUOUS
 62
     7
 10
74.657852511818405
 20
124.73227730105
 30
0.0
 11
74.657852511818405
 21
112.909521090214
 31
0.0
1001
ACAD
1000
ASC_BOUNDS
1002
{
1070
    19
1002
}
  0
LINE
  5
1B259
  8
0
  6
CONTINUOUS
 62
     7
 10
74.657852511818405
 20
136.55503351188599
 30
0.0
 11
74.657852511818405
 21
124.73227730105
 31
0.0
1001
ACAD
1000
ASC_BOUNDS
1002
{
1070
    19
1002
}
  0
LINE
  5
1B25A
  8
0
  6
HIDDEN
 62
     3
 10
75.097192133149292
 20
133.67161733615939
 30
0.0
 11
75.097192133149292
 21
124.7322787138652
 31
0.0
  0
ARC
  5
1B25B
  8
0
  6
HIDDEN
 62
     3
 10
76.157852511818419
 20
134.73227730104989
 30
0.0
 40
1.5
 50
180.0
 51
224.99998882405509
1001
ACAD
1000
ASC_BOUNDS
1002
{
1070
    19
1002
}
  0
DIMENSION
  5
1B25C
  8
0
  6
CONTINUOUS
  2
*D23
 10
230.05785251181851
 20
78.300768963422001
 30
0.0
 11
185.05785251181851
 21
80.400768963421996
 31
0.0
 70
     0
 13
140.05785251181851
 23
102.5072773010499
 33
0.0
 14
230.05785251181851
 24
92.321438633499042
 34
0.0
1001
ACAD
1000
DSTYLE
1002
{
1070
   287
1070
     2
1070
    42
1040
0.6
1070
    43
1040
1.0
1070
    44
1040
1.0
1070
    47
1040
0.1
1070
    48
1040
0.1
1070
    73
1070
     0
1070
   140
1040
3.0
1070
   141
1040
-1.0
1070
   146
1040
0.7
1070
   147
1040
0.6
1070
   178
1070
     3
1070
   271
1070
     8
1070
   272
1070
     8
1070
   275
1070
     1
1070
   283
1070
     0
1070
   284
1070
     8
1070
   289
1070
     2
1002
}
  0
LINE
  5
1B25D
  8
0
  6
CONTINUOUS
 62
     7
 10
140.05785251181851
 20
102.5072773010499
 30
0.0
 11
75.513545627960866
 21
111.9199881078069
 31
0.0
1001
ACAD
1000
ASC_BOUNDS
1002
{
1070
    19
1002
}
  0
POINT
  5
1B264
  8
DEFPOINTS
  6
BYBLOCK
 62
     0
 10
108.15180979348089
 20
106.661049031082
 30
0.0
  0
LINE
  5
1B266
  8
0
  6
HIDDEN
 62
     3
 10
104.6578525118184
 20
132.73227730104989
 30
0.0
 11
106.0434931578734
 21
131.93227730104991
 31
0.0
1001
ACAD
1000
ASC_BOUNDS
1002
{
1070
    19
1002
}
  0
LINE
  5
1B267
  8
0
  6
HIDDEN
 62
     3
 10
84.270793614205104
 20
131.93227730104999
 30
0.0
 11
119.6578525118184
 21
131.93227730104991
 31
0.0
1001
ACAD
1000
ASC_BOUNDS
1002
{
1070
    19
1002
}
  0
LINE
  5
1B268
  8
0
  6
HIDDEN
 62
     3
 10
83.657852511818419
 20
133.53227730104999
 30
0.0
 11
83.657741027214783
 21
124.73227730105
 31
0.0
1001
ACAD
1000
ASC_BOUNDS
1002
{
1070
    19
1002
}
  0
LINE
  5
1B269
  8
0
  6
HIDDEN
 62
     3
 10
104.6578525118184
 20
124.73227730105
 30
0.0
 11
104.6578525118184
 21
132.73227730104989
 31
0.0
1001
ACAD
1000
ASC_BOUNDS
1002
{
1070
    19
1002
}
  0
LINE
  5
1B26A
  8
0
  6
HIDDEN
 62
     3
 10
84.270793614205104
 20
131.93227730104999
 30
0.0
 11
84.270793614205104
 21
124.73227730105
 31
0.0
  0
LINE
  5
1B26B
  8
0
  6
HIDDEN
 62
     3
 10
81.657852511618344
 20
133.5322773010499
 30
0.0
 11
81.657852511618344
 21
124.7322741793844
 31
0.0
  0
LINE
  5
1B26C
  8
0
  6
HIDDEN
 62
     3
 10
80.538237269347974
 20
133.23227730105
 30
0.0
 11
80.538237269347974
 21
124.73227730105
 31
0.0
  0
LINE
  5
1B26D
  8
0
  6
HIDDEN
 62
     3
 10
75.769624226780707
 20
133.2833884858897
 30
0.0
 11
75.769624226780707
 21
124.7322787138652
 31
0.0
  0
LINE
  5
1B26E
  8
0
  6
HIDDEN
 62
     3
 10
104.6578525118184
 20
132.73227730104989
 30
0.0
 11
83.812205531758082
 21
132.73227730104989
 31
0.0
1001
ACAD
1000
ASC_BOUNDS
1002
{
1070
    19
1002
}
  0
ARC
  5
1B26F
  8
0
  6
HIDDEN
 62
     3
 10
76.157852511818419
 20
134.73227730104989
 30
0.0
 40
1.5
 50
255.0000111759405
 51
269.99997764809501
1001
ACAD
1000
ASC_BOUNDS
1002
{
1070
    19
1002
}
  0
LINE
  5
1B270
  8
0
  6
HIDDEN
 62
     3
 10
76.157852511818419
 20
133.23227730105
 30
0.0
 11
80.538237269347974
 21
133.23227730105
 31
0.0
  0
LINE
  5
1B271
  8
0
  6
HIDDEN
 62
     3
 10
81.657852511618344
 20
133.5322773010499
 30
0.0
 11
80.538237269347974
 21
133.23227730105
 31
0.0
  0
LINE
  5
1B272
  8
0
  6
HIDDEN
 62
     3
 10
83.657845788261056
 20
133.00155554774719
 30
0.0
 11
84.270793614205104
 21
131.93227730104999
 31
0.0
1001
ACAD
1000
ASC_BOUNDS
1002
{
1070
    19
1002
}
  0
LINE
  5
1B273
  8
0
  6
HIDDEN
 62
     3
 10
81.657852511618344
 20
133.5322773010499
 30
0.0
 11
83.657852511818419
 21
133.53227730104999
 31
0.0
  0
LINE
  5
1B274
  8
0
  6
HIDDEN
 62
     3
 10
119.92130642475369
 20
131.48227730104989
 30
0.0
 11
119.92130642475369
 21
124.73227730105
 31
0.0
  0
LINE
  5
1B275
  8
0
  6
HIDDEN
 62
     3
 10
119.6578525118184
 20
131.93227730104991
 30
0.0
 11
119.6578525118184
 21
124.73227730105
 31
0.0
  0
LINE
  5
1B276
  8
0
  6
HIDDEN
 62
     3
 10
119.92130642475369
 20
131.48227730104989
 30
0.0
 11
151.5959722964669
 21
131.48227730104989
 31
0.0
1001
ACAD
1000
ASC_BOUNDS
1002
{
1070
    19
1002
}
  0
LINE
  5
1B277
  8
0
  6
HIDDEN
 62
     3
 10
119.6578525118184
 20
131.93227730104991
 30
0.0
 11
119.92130642475369
 21
131.48227730104989
 31
0.0
1001
ACAD
1000
ASC_BOUNDS
1002
{
1070
    19
1002
}
  0
ARC
  5
1B278
  8
0
  6
CONTINUOUS
 10
155.0078525118183
 20
124.7322773010499
 30
0.0
 40
8.0499999999999545
 50
270.0
 51
0.0
  0
LINE
  5
1B279
  8
0
  6
CONTINUOUS
 62
     7
 10
167.05785251181851
 20
94.232277301049976
 30
0.0
 11
167.05785251181851
 21
124.73227730105
 31
0.0
1001
ACAD
1000
ASC_BOUNDS
1002
{
1070
    19
1002
}
  0
LINE
  5
1B27A
  8
0
  6
CONTINUOUS
 62
     7
 10
154.15785251181839
 20
97.562404319972075
 30
0.0
 11
154.15785251181791
 21
115.0822773010497
 31
0.0
1001
ACAD
1000
ASC_BOUNDS
1002
{
1070
    19
1002
}
  0
LINE
  5
1B27B
  8
0
  6
CONTINUOUS
 62
     7
 10
159.15785251181839
 20
97.562404319972075
 30
0.0
 11
159.15785251181919
 21
116.0202166952004
 31
0.0
1001
ACAD
1000
ASC_BOUNDS
1002
{
1070
    19
1002
}
  0
LINE
  5
1B27C
  8
0
  6
CONTINUOUS
 62
     7
 10
161.65785251181839
 20
93.324029010586173
 30
0.0
 11
161.65785251181839
 21
117.739423806231
 31
0.0
  0
LINE
  5
1B27D
  8
0
  6
CONTINUOUS
 62
     7
 10
140.05785251181851
 20
102.5072773010499
 30
0.0
 11
140.05785251181851
 21
124.73227730105
 31
0.0
  0
LINE
  5
1B27E
  8
0
  6
CONTINUOUS
 62
     7
 10
141.05785251181851
 20
102.7752264934811
 30
0.0
 11
141.05785251181851
 21
124.73227730105
 31
0.0
  0
LINE
  5
1B27F
  8
0
  6
CONTINUOUS
 62
     7
 10
151.65785251181839
 20
93.324029010586045
 30
0.0
 11
151.65785251181839
 21
115.0822773010497
 31
0.0
  0
LINE
  5
1B280
  8
0
 62
     7
 10
142.05785251181851
 20
124.73227730105
 30
0.0
 11
142.05785251181851
 21
94.232277301049976
 31
0.0
1001
ACAD
1000
ASC_BOUNDS
1002
{
1070
    19
1002
}
  0
LINE
  5
1B281
  8
0
  6
CONTINUOUS
 62
     7
 10
166.05785251181851
 20
93.232277301049976
 30
0.0
 11
161.94652764641339
 21
93.232277301049976
 31
0.0
1001
ACAD
1000
ASC_BOUNDS
1002
{
1070
    19
1002
}
  0
LINE
  5
1B282
  8
0
  6
CONTINUOUS
 62
     7
 10
151.36917737722391
 20
93.232277301049919
 30
0.0
 11
143.05785251181851
 21
93.232277301049976
 31
0.0
1001
ACAD
1000
ASC_BOUNDS
1002
{
1070
    19
1002
}
  0
LINE
  5
1B283
  8
0
  6
CONTINUOUS
 62
     7
 10
141.05785251181851
 20
102.7752264934811
 30
0.0
 11
141.55785251181851
 21
102.7752264934811
 31
0.0
1001
ACAD
1000
ASC_BOUNDS
1002
{
1070
    19
1002
}
  0
ARC
  5
1B284
  8
0
  6
CONTINUOUS
 62
     7
 10
141.55785251181851
 20
102.2752264934811
 30
0.0
 40
0.5
 50
0.0
 51
90.0
1001
ACAD
1000
ASC_BOUNDS
1002
{
1070
    19
1002
}
  0
LINE
  5
1B285
  8
0
  6
CONTINUOUS
 62
     7
 10
140.05785251181851
 20
102.5072773010499
 30
0.0
 11
141.05785251181851
 21
102.7752264934811
 31
0.0
1001
ACAD
1000
ASC_BOUNDS
1002
{
1070
    19
1002
}
  0
ARC
  5
1B286
  8
0
  6
CONTINUOUS
 62
     7
 10
143.05785251181851
 20
94.232277301049976
 30
0.0
 40
1.0
 50
180.0
 51
270.0
1001
ACAD
1000
ASC_BOUNDS
1002
{
1070
    19
1002
}
  0
LINE
  5
1B287
  8
0
 62
     7
 10
159.15785251181839
 20
99.232277301049976
 30
0.0
 11
154.15785251181839
 21
99.232277301049976
 31
0.0
1001
ACAD
1000
ASC_BOUNDS
1002
{
1070
    19
1002
}
  0
POINT
  5
1B288
  8
DEFPOINTS
  6
BYBLOCK
 62
     4
 10
154.5446038577665
 20
99.232277301050047
 30
0.0
  0
ARC
  5
1B289
  8
0
  6
CONTINUOUS
 62
     7
 10
161.94652764641339
 20
93.732277301049976
 30
0.0
 40
0.5
 50
209.99999999999619
 51
270.0
1001
ACAD
1000
ASC_BOUNDS
1002
{
1070
    19
1002
}
  0
LINE
  5
1B28A
  8
0
 62
     7
 10
159.15785251181839
 20
97.562404319972075
 30
0.0
 11
161.51351494452089
 21
93.482277301049976
 31
0.0
1001
ACAD
1000
ASC_BOUNDS
1002
{
1070
    19
1002
}
  0
ARC
  5
1B28B
  8
0
  6
CONTINUOUS
 62
     7
 10
151.36917737722391
 20
93.732277301049905
 30
0.0
 40
0.5
 50
270.0
 51
330.00000000000381
1001
ACAD
1000
ASC_BOUNDS
1002
{
1070
    19
1002
}
  0
LINE
  5
1B28C
  8
0
 62
     7
 10
154.15785251181839
 20
97.562404319972075
 30
0.0
 11
151.80219007911589
 21
93.482277301049919
 31
0.0
1001
ACAD
1000
ASC_BOUNDS
1002
{
1070
    19
1002
}
  0
ARC
  5
1B28D
  8
0
  6
CONTINUOUS
 62
     7
 10
166.05785251181851
 20
94.232277301049976
 30
0.0
 40
1.0
 50
270.0
 51
0.0
1001
ACAD
1000
ASC_BOUNDS
1002
{
1070
    19
1002
}
  0
LINE
  5
1B28E
  8
0
  6
HIDDEN
 62
     3
 10
159.10411754437879
 20
137.72103722603461
 30
0.0
 11
160.88319149674811
 21
138.55063303444859
 31
0.0
1001
ACAD
1000
ASC_BOUNDS
1002
{
1070
    19
1002
}
  0
LINE
  5
1B28F
  8
0
  6
HIDDEN
 62
     3
 10
159.10411754437919
 20
137.72103722603501
 30
0.0
 11
158.30785251181851
 21
138.2785880042467
 31
0.0
1001
ACAD
1000
ASC_BOUNDS
1002
{
1070
    19
1002
}
  0
LINE
  5
1B290
  8
0
  6
HIDDEN
 62
     3
 10
158.30785251181851
 20
138.2785880042467
 30
0.0
 11
158.30785251181851
 21
132.2822773010501
 31
0.0
1001
ACAD
1000
ASC_BOUNDS
1002
{
1070
    19
1002
}
  0
LINE
  5
1B291
  8
0
  6
HIDDEN
 62
     3
 10
159.10411754437919
 20
137.72103722603501
 30
0.0
 11
160.07919748617579
 21
139.11359570132649
 31
0.0
  0
LINE
  5
1B29A
  8
0
  6
CONTINUOUS
 62
     7
 10
166.05785251181851
 20
156.23227730105
 30
0.0
 11
161.94652764641339
 21
156.23227730105
 31
0.0
1001
ACAD
1000
ASC_BOUNDS
1002
{
1070
    19
1002
}
  0
LINE
  5
1B29B
  8
0
  6
CONTINUOUS
 62
     7
 10
159.15785251181839
 20
151.90215028212791
 30
0.0
 11
159.15785251181839
 21
133.4443379068999
 31
0.0
1001
ACAD
1000
ASC_BOUNDS
1002
{
1070
    19
1002
}
  0
LINE
  5
1B29C
  8
0
 62
     7
 10
142.05785251181851
 20
124.73227730105
 30
0.0
 11
142.05785251181851
 21
155.23227730105
 31
0.0
1001
ACAD
1000
ASC_BOUNDS
1002
{
1070
    19
1002
}
  0
LINE
  5
1B29D
  8
0
  6
HIDDEN
 62
     3
 10
148.93906969454341
 20
149.35554633517049
 30
0.0
 11
144.4337334509537
 21
152.5102167351011
 31
0.0
1001
ACAD
1000
ASC_BOUNDS
1002
{
1070
    19
1002
}
  0
LINE
  5
1B29E
  8
0
  6
HIDDEN
 62
     3
 10
155.0078525118183
 20
144.7399064821287
 30
0.0
 11
144.50740613333531
 21
152.09239819090939
 31
0.0
1001
ACAD
1000
ASC_BOUNDS
1002
{
1070
    19
1002
}
  0
LINE
  5
1B29F
  8
0
  6
CONTINUOUS
 62
     7
 10
154.15785251181839
 20
151.90215028212791
 30
0.0
 11
154.15785251181839
 21
134.38227730105021
 31
0.0
1001
ACAD
1000
ASC_BOUNDS
1002
{
1070
    19
1002
}
  0
LINE
  5
1B2A0
  8
0
  6
HIDDEN
 62
     3
 10
144.4337334509537
 20
152.5102167351011
 30
0.0
 11
143.28658057825211
 21
150.8719126465233
 31
0.0
  0
LINE
  5
1B2A1
  8
0
  6
HIDDEN
 62
     3
 10
144.50740613333531
 20
152.09239819090939
 30
0.0
 11
143.53232619153869
 21
150.6998397156182
 31
0.0
  0
LINE
  5
1B2A2
  8
0
  6
HIDDEN
 62
     3
 10
155.0078525118183
 20
140.58927288033999
 30
0.0
 11
142.55724624974209
 21
149.30728124032709
 31
0.0
1001
ACAD
1000
ASC_BOUNDS
1002
{
1070
    19
1002
}
  0
LINE
  5
1B2A3
  8
0
  6
HIDDEN
 62
     3
 10
146.6447639491393
 20
146.07893815801489
 30
0.0
 11
147.24248076799489
 21
146.02664471236619
 31
0.0
1001
ACAD
1000
ASC_BOUNDS
1002
{
1070
    19
1002
}
  0
LINE
  5
1B2A4
  8
0
  6
HIDDEN
 62
     3
 10
146.6447639491393
 20
146.07893815801489
 30
0.0
 11
142.1394277055501
 21
149.23360855794579
 31
0.0
1001
ACAD
1000
ASC_BOUNDS
1002
{
1070
    19
1002
}
  0
LINE
  5
1B2A5
  8
0
  6
HIDDEN
 62
     3
 10
142.1394277055501
 20
149.23360855794579
 30
0.0
 11
142.05785251181851
 21
149.2907281235276
 31
0.0
1001
ACAD
1000
ASC_BOUNDS
1002
{
1070
    19
1002
}
  0
ARC
  5
1B2A6
  8
0
  6
CONTINUOUS
 62
     7
 10
141.55785251181851
 20
147.1893281086187
 30
0.0
 40
0.5
 50
269.99999999998698
 51
359.99999999999682
1001
ACAD
1000
ASC_BOUNDS
1002
{
1070
    19
1002
}
  0
LINE
  5
1B2A7
  8
0
  6
CONTINUOUS
 62
     7
 10
141.05785251181851
 20
146.68932810861881
 30
0.0
 11
141.55785251181851
 21
146.6893281086187
 31
0.0
1001
ACAD
1000
ASC_BOUNDS
1002
{
1070
    19
1002
}
  0
LINE
  5
1B2A8
  8
0
  6
CONTINUOUS
 62
     7
 10
140.05785251181851
 20
146.95727730105
 30
0.0
 11
141.05785251181851
 21
146.68932810861881
 31
0.0
1001
ACAD
1000
ASC_BOUNDS
1002
{
1070
    19
1002
}
  0
LINE
  5
1B2A9
  8
0
  6
HIDDEN
 62
     3
 10
148.93906969454341
 20
149.35554633517069
 30
0.0
 11
149.19264065158811
 21
148.81176166294841
 31
0.0
1001
ACAD
1000
ASC_BOUNDS
1002
{
1070
    19
1002
}
  0
LINE
  5
1B2AA
  8
0
  6
HIDDEN
 62
     3
 10
147.79191682184131
 20
147.71724224659269
 30
0.0
 11
148.93906969454341
 21
149.35554633517069
 31
0.0
1001
ACAD
1000
ASC_BOUNDS
1002
{
1070
    19
1002
}
  0
LINE
  5
1B2AB
  8
0
  6
HIDDEN
 62
     3
 10
147.79191682184131
 20
147.71724224659269
 30
0.0
 11
146.6447639491393
 21
146.07893815801489
 31
0.0
1001
ACAD
1000
ASC_BOUNDS
1002
{
1070
    19
1002
}
  0
LINE
  5
1B2AC
  8
0
  6
HIDDEN
 62
     3
 10
142.1394277055501
 20
149.23360855794579
 30
0.0
 11
142.55724624974209
 21
149.30728124032689
 31
0.0
1001
ACAD
1000
ASC_BOUNDS
1002
{
1070
    19
1002
}
  0
LINE
  5
1B2AD
  8
0
  6
HIDDEN
 62
     3
 10
142.55724624974209
 20
149.30728124032689
 30
0.0
 11
143.53232619153869
 21
150.6998397156182
 31
0.0
  0
LINE
  5
1B2AE
  8
0
  6
HIDDEN
 62
     3
 10
142.1394277055501
 20
149.23360855794579
 30
0.0
 11
143.28658057825211
 21
150.8719126465235
 31
0.0
  0
LINE
  5
1B2AF
  8
0
 62
     7
 10
159.15785251181839
 20
150.23227730104989
 30
0.0
 11
154.15785251181839
 21
150.23227730104989
 31
0.0
1001
ACAD
1000
ASC_BOUNDS
1002
{
1070
    19
1002
}
  0
LINE
  5
1B2B0
  8
0
  6
CONTINUOUS
 62
     7
 10
158.7578525118183
 20
150.23227730104989
 30
0.0
 11
158.7578525118183
 21
150.10727730104989
 31
0.0
1001
ACAD
1000
ASC_BOUNDS
1002
{
1070
    19
1002
}
  0
LINE
  5
1B2B1
  8
0
  6
CONTINUOUS
 62
     7
 10
158.7578525118183
 20
150.10727730104989
 30
0.0
 11
158.30785251181851
 21
149.84683988904581
 31
0.0
1001
ACAD
1000
ASC_BOUNDS
1002
{
1070
    19
1002
}
  0
LINE
  5
1B2B2
  8
0
  6
HIDDEN
 62
     3
 10
158.65785251181839
 20
150.0494023206046
 30
0.0
 11
158.65785251181839
 21
145.30727730104979
 31
0.0
1001
ACAD
1000
ASC_BOUNDS
1002
{
1070
    19
1002
}
  0
LINE
  5
1B2B3
  8
0
  6
HIDDEN
 62
     3
 10
158.65785251181839
 20
145.30727730104979
 30
0.0
 11
158.30785251181851
 21
144.6902785563237
 31
0.0
1001
ACAD
1000
ASC_BOUNDS
1002
{
1070
    19
1002
}
  0
LINE
  5
1B2B4
  8
0
  6
HIDDEN
 62
     3
 10
158.30785251181851
 20
149.8468398890455
 30
0.0
 11
158.30785251181851
 21
142.42922160603649
 31
0.0
1001
ACAD
1000
ASC_BOUNDS
1002
{
1070
    19
1002
}
  0
LINE
  5
1B2B5
  8
0
  6
HIDDEN
 62
     3
 10
161.05427742797289
 20
140.5061541766182
 30
0.0
 11
158.30785251181851
 21
142.42922160603649
 31
0.0
1001
ACAD
1000
ASC_BOUNDS
1002
{
1070
    19
1002
}
  0
LINE
  5
1B2B6
  8
0
  6
HIDDEN
 62
     3
 10
154.65785251181839
 20
145.30727730104979
 30
0.0
 11
154.9611502939988
 21
144.7726077270973
 31
0.0
1001
ACAD
1000
ASC_BOUNDS
1002
{
1070
    19
1002
}
  0
LINE
  5
1B2B7
  8
0
  6
HIDDEN
 62
     3
 10
154.65785251181839
 20
150.0494023206046
 30
0.0
 11
154.65785251181839
 21
145.30727730104979
 31
0.0
1001
ACAD
1000
ASC_BOUNDS
1002
{
1070
    19
1002
}
  0
LINE
  5
1B2B8
  8
0
  6
CONTINUOUS
 62
     7
 10
154.55785251181851
 20
150.10727730104989
 30
0.0
 11
155.0078525118183
 21
149.84683988904581
 31
0.0
1001
ACAD
1000
ASC_BOUNDS
1002
{
1070
    19
1002
}
  0
LINE
  5
1B2B9
  8
0
  6
CONTINUOUS
 62
     7
 10
154.55785251181851
 20
150.23227730104989
 30
0.0
 11
154.55785251181851
 21
150.10727730104989
 31
0.0
1001
ACAD
1000
ASC_BOUNDS
1002
{
1070
    19
1002
}
  0
LINE
  5
1B2BA
  8
0
  6
HIDDEN
 62
     3
 10
154.65785251181839
 20
145.30727730104979
 30
0.0
 11
156.65785251181839
 21
145.30727730104999
 31
0.0
1001
ACAD
1000
ASC_BOUNDS
1002
{
1070
    19
1002
}
  0
LINE
  5
1B2BB
  8
0
  6
HIDDEN
 62
     3
 10
155.0078525118183
 20
149.8468398890455
 30
0.0
 11
155.0078525118183
 21
144.7399064821287
 31
0.0
1001
ACAD
1000
ASC_BOUNDS
1002
{
1070
    19
1002
}
  0
LINE
  5
1B2BC
  8
0
  6
HIDDEN
 62
     3
 10
158.65785251181839
 20
145.30727730104979
 30
0.0
 11
156.65785251181839
 21
145.30727730104999
 31
0.0
1001
ACAD
1000
ASC_BOUNDS
1002
{
1070
    19
1002
}
  0
LINE
  5
1B2BD
  8
0
  6
CONTINUOUS
 62
     7
 10
154.55785251181851
 20
150.10727730104989
 30
0.0
 11
156.65785251181839
 21
150.10727730104989
 31
0.0
  0
LINE
  5
1B2BE
  8
0
  6
CONTINUOUS
 62
     7
 10
155.0078525118183
 20
149.84683988904581
 30
0.0
 11
156.65785251181839
 21
149.84683988904581
 31
0.0
  0
POINT
  5
1B2BF
  8
DEFPOINTS
  6
BYBLOCK
 62
     0
 10
154.5446038577665
 20
150.23227730104989
 30
0.0
  0
LINE
  5
1B2C0
  8
0
  6
CONTINUOUS
 62
     7
 10
158.7578525118183
 20
150.10727730104989
 30
0.0
 11
156.65785251181839
 21
150.10727730104989
 31
0.0
  0
LINE
  5
1B2C1
  8
0
  6
CONTINUOUS
 62
     7
 10
158.30785251181851
 20
149.84683988904581
 30
0.0
 11
156.65785251181839
 21
149.84683988904581
 31
0.0
  0
ARC
  5
1B2C2
  8
0
  6
HIDDEN
 62
     3
 10
156.4669953194184
 20
139.9119070280332
 30
0.0
 40
1.6087020329577379
 50
83.186352287898004
 51
155.09824544129739
  0
ARC
  5
1B2C3
  8
0
  6
HIDDEN
 62
     3
 10
156.7228790906542
 20
143.33226821724779
 30
0.0
 40
1.824180344104438
 50
267.95714385127542
 51
330.3274538779275
  0
ARC
  5
1B2C4
  8
0
  6
HIDDEN
 62
     3
 10
158.91555306831151
 20
144.6990096771454
 30
0.0
 40
3.9079145573915448
 50
179.4003816972411
 51
234.7092990552417
  0
LINE
  5
1B2C5
  8
0
  6
CONTINUOUS
 62
     7
 10
151.36917737722391
 20
156.23227730105
 30
0.0
 11
143.05785251181851
 21
156.23227730105
 31
0.0
1001
ACAD
1000
ASC_BOUNDS
1002
{
1070
    19
1002
}
  0
ARC
  5
1B2C6
  8
0
  6
CONTINUOUS
 62
     7
 10
143.05785251181851
 20
155.23227730105
 30
0.0
 40
1.0
 50
90.0
 51
179.9999999999967
1001
ACAD
1000
ASC_BOUNDS
1002
{
1070
    19
1002
}
  0
LINE
  5
1B2C7
  8
0
  6
HIDDEN
 62
     3
 10
144.4337334509537
 20
152.5102167351011
 30
0.0
 11
142.05785251181851
 21
154.17382647857249
 31
0.0
1001
ACAD
1000
ASC_BOUNDS
1002
{
1070
    19
1002
}
  0
LINE
  5
1B2C8
  8
0
  6
HIDDEN
 62
     3
 10
144.4337334509537
 20
152.5102167351011
 30
0.0
 11
144.50740613333531
 21
152.09239819090939
 31
0.0
1001
ACAD
1000
ASC_BOUNDS
1002
{
1070
    19
1002
}
  0
ARC
  5
1B2CD
  8
0
  6
CONTINUOUS
 62
     7
 10
161.94652764641339
 20
155.73227730104989
 30
0.0
 40
0.5
 50
90.0
 51
150.00000000000381
1001
ACAD
1000
ASC_BOUNDS
1002
{
1070
    19
1002
}
  0
LINE
  5
1B2CE
  8
0
 62
     7
 10
159.15785251181839
 20
151.90215028212791
 30
0.0
 11
161.51351494452129
 21
155.98227730105
 31
0.0
1001
ACAD
1000
ASC_BOUNDS
1002
{
1070
    19
1002
}
  0
LINE
  5
1B2CF
  8
0
 62
     7
 10
154.15785251181839
 20
151.90215028212791
 30
0.0
 11
151.80219007911589
 21
155.98227730105
 31
0.0
1001
ACAD
1000
ASC_BOUNDS
1002
{
1070
    19
1002
}
  0
ARC
  5
1B2D0
  8
0
  6
CONTINUOUS
 62
     7
 10
151.36917737722391
 20
155.73227730104989
 30
0.0
 40
0.5
 50
29.999999999996199
 51
90.0
1001
ACAD
1000
ASC_BOUNDS
1002
{
1070
    19
1002
}
  0
LINE
  5
1B2D1
  8
0
  6
CONTINUOUS
 62
     7
 10
167.05785251181851
 20
155.23227730105
 30
0.0
 11
167.05785251181851
 21
124.73227730105
 31
0.0
1001
ACAD
1000
ASC_BOUNDS
1002
{
1070
    19
1002
}
  0
ARC
  5
1B2D2
  8
0
  6
CONTINUOUS
 62
     7
 10
166.05785251181851
 20
155.23227730105
 30
0.0
 40
1.0
 50
0.0
 51
90.0
1001
ACAD
1000
ASC_BOUNDS
1002
{
1070
    19
1002
}
  0
LINE
  5
1B2D9
  8
0
  6
CONTINUOUS
 10
155.0078525118183
 20
116.68227730104989
 30
0.0
 11
143.65785251181819
 21
116.68227730104979
 31
0.0
  0
ARC
  5
1B2DA
  8
0
  6
CONTINUOUS
 10
155.0078525118183
 20
124.73227730104981
 30
0.0
 40
9.650000000000011
 50
270.0
 51
0.0
  0
LINE
  5
1B2DB
  8
0
  6
CONTINUOUS
 10
143.65785251181831
 20
115.0822773010497
 30
0.0
 11
155.0078525118183
 21
115.0822773010497
 31
0.0
  0
ARC
  5
1B2DC
  8
0
  6
CONTINUOUS
 10
143.65785251181831
 20
113.48227730104981
 30
0.0
 40
1.6000000000000001
 50
90.0
 51
180.0
  0
ARC
  5
1B2DD
  8
0
  6
CONTINUOUS
 10
143.65785251181819
 20
115.0822773010498
 30
0.0
 40
1.6000000000000001
 50
90.0
 51
180.0
  0
LINE
  5
1B2DE
  8
0
  6
HIDDEN
 62
     3
 10
177.05785251181851
 20
124.73227730105
 30
0.0
 11
177.05785251181851
 21
134.43227730104991
 31
0.0
  0
DIMENSION
  5
1B2ED
  8
0
  6
CONTINUOUS
  2
*D24
 10
250.3076595918362
 20
145.7322773010502
 30
0.0
 11
248.20736431624559
 21
124.7322773010503
 31
0.0
 70
     0
 13
217.58103250866151
 23
103.7322773010503
 33
0.0
 14
217.5810325086581
 24
145.7322773010502
 34
0.0
 50
90.0
1001
ACAD
1000
DSTYLE
1002
{
1070
   287
1070
     2
1070
     3
1000
%%c<>
1070
    42
1040
0.6
1070
    43
1040
1.0
1070
    44
1040
1.0
1070
    47
1040
0.1
1070
    48
1040
0.1
1070
    73
1070
     0
1070
   140
1040
3.0
1070
   141
1040
-1.0
1070
   146
1040
0.7
1070
   147
1040
0.6
1070
   178
1070
     3
1070
   179
1070
     8
1070
   271
1070
     8
1070
   272
1070
     8
1070
   275
1070
     1
1070
   283
1070
     0
1070
   284
1070
     8
1070
   289
1070
     2
1002
}
  0
LINE
  5
1B304
  8
0
  6
CONTINUOUS
 10
229.23150068948539
 20
105.78656917921499
 30
0.0
 11
217.58103250866151
 21
103.7322773010503
 31
0.0
  0
LINE
  5
1B305
  8
0
  6
CONTINUOUS
 10
203.98879261949381
 20
104.21997581269009
 30
0.0
 11
203.98879261949381
 21
124.73227730105
 31
0.0
  0
LINE
  5
1B306
  8
0
  6
CONTINUOUS
 10
203.65370732338531
 20
103.8056786686783
 30
0.0
 11
203.65370732338531
 21
124.73227730104981
 31
0.0
  0
LINE
  5
1B307
  8
CT
  6
BYBLOCK
 62
     0
 10
203.4227672157094
 20
103.7322773010501
 30
0.0
 11
190.63520278100799
 21
103.7322773010502
 31
0.0
1001
ACAD
1000
ASC_BOUNDS
1002
{
1070
    19
1002
}
  0
ARC
  5
1B308
  8
0
  6
CONTINUOUS
 10
190.63520278100799
 20
102.7322773010502
 30
0.0
 40
1.0
 50
90.0
 51
149.99999999999969
1001
ACAD
1000
ASC_BOUNDS
1002
{
1070
    19
1002
}
  0
LINE
  5
1B309
  8
CT
  6
BYBLOCK
 62
     0
 10
217.58103250866151
 20
103.7322773010503
 30
0.0
 11
213.69293780792651
 21
103.7322773010509
 31
0.0
1001
ACAD
1000
ASC_BOUNDS
1002
{
1070
    19
1002
}
  0
LINE
  5
1B30D
  8
CT
  6
BYBLOCK
 62
     0
 10
203.4227672157094
 20
145.73227730105009
 30
0.0
 11
190.63520278100799
 21
145.7322773010502
 31
0.0
1001
ACAD
1000
ASC_BOUNDS
1002
{
1070
    19
1002
}
  0
LINE
  5
1B30E
  8
0
  6
CONTINUOUS
 10
204.057852511818
 20
145.2322773010506
 30
0.0
 11
206.057852511818
 21
145.2322773010506
 31
0.0
  0
LINE
  5
1B30F
  8
0
  6
CONTINUOUS
 10
211.05785251181811
 20
145.2322773010506
 30
0.0
 11
213.05785251181811
 21
145.2322773010506
 31
0.0
  0
ARC
  5
1B310
  8
0
  6
CONTINUOUS
 62
     7
 10
211.05785251181811
 20
145.43227730105059
 30
0.0
 40
0.2
 50
209.99999999998869
 51
270.0
  0
LINE
  5
1B311
  8
0
  6
CONTINUOUS
 62
     7
 10
210.88464743106121
 20
145.33227730105051
 30
0.0
 11
210.76917737722309
 21
145.5322773010505
 31
0.0
  0
ARC
  5
1B312
  8
0
  6
CONTINUOUS
 62
     7
 10
210.4227672157094
 20
145.3322773010506
 30
0.0
 40
0.4
 50
29.99999999998872
 51
90.0
  0
LINE
  5
1B313
  8
0
  6
CONTINUOUS
 62
     7
 10
206.69293780792671
 20
145.7322773010506
 30
0.0
 11
210.4227672157094
 21
145.7322773010506
 31
0.0
  0
ARC
  5
1B314
  8
0
  6
CONTINUOUS
 62
     7
 10
206.69293780792671
 20
145.3322773010506
 30
0.0
 40
0.4
 50
90.0
 51
149.99999999998491
  0
LINE
  5
1B315
  8
0
  6
CONTINUOUS
 62
     7
 10
206.2310575925749
 20
145.33227730105051
 30
0.0
 11
206.34652764641311
 21
145.53227730105061
 31
0.0
  0
ARC
  5
1B316
  8
0
  6
CONTINUOUS
 62
     7
 10
206.057852511818
 20
145.43227730105059
 30
0.0
 40
0.2
 50
270.0
 51
329.99999999998488
  0
ARC
  5
1B317
  8
0
  6
CONTINUOUS
 10
213.69293780792671
 20
145.3322773010504
 30
0.0
 40
0.4
 50
90.000000000065128
 51
149.99999999998491
  0
LINE
  5
1B318
  8
0
  6
CONTINUOUS
 62
     7
 10
213.2310575925749
 20
145.33227730105051
 30
0.0
 11
213.34652764641299
 21
145.5322773010505
 31
0.0
  0
ARC
  5
1B319
  8
0
  6
CONTINUOUS
 62
     7
 10
213.05785251181811
 20
145.43227730105059
 30
0.0
 40
0.2
 50
270.0
 51
329.99999999998488
  0
LINE
  5
1B31A
  8
CT
  6
BYBLOCK
 62
     0
 10
217.5810325086581
 20
145.7322773010502
 30
0.0
 11
213.69293780792671
 21
145.73227730105049
 31
0.0
1001
ACAD
1000
ASC_BOUNDS
1002
{
1070
    19
1002
}
  0
LINE
  5
1B31B
  8
0
  6
CONTINUOUS
 10
230.05785251181851
 20
106.7713769322272
 30
0.0
 11
230.05785251181851
 21
124.73227730105
 31
0.0
  0
LINE
  5
1B31C
  8
0
  6
CONTINUOUS
 10
190.0578525118184
 20
103.54877388197779
 30
0.0
 11
190.05785251181851
 21
124.7322773010501
 31
0.0
  0
ARC
  5
1B31D
  8
0
  6
CONTINUOUS
 10
229.05785251181851
 20
106.7713769322272
 30
0.0
 40
1.0
 50
279.99999999999858
 51
0.0
  0
LINE
  5
1B31F
  8
0
  6
CONTINUOUS
 10
230.05785251181831
 20
142.6931776698728
 30
0.0
 11
230.05785251181919
 21
124.73227730105
 31
0.0
  0
ARC
  5
1B320
  8
0
  6
CONTINUOUS
 10
229.05785251181831
 20
142.69317766987271
 30
0.0
 40
1.0
 50
0.0000000000032569
 51
79.999999999998195
  0
LINE
  5
1B347
  8
0
  6
CONTINUOUS
 10
204.057852511818
 20
104.23227730104929
 30
0.0
 11
206.057852511818
 21
104.23227730104929
 31
0.0
  0
LINE
  5
1B348
  8
0
  6
CONTINUOUS
 10
211.05785251181811
 20
104.23227730104929
 30
0.0
 11
213.05785251181811
 21
104.23227730104929
 31
0.0
  0
ARC
  5
1B349
  8
0
  6
CONTINUOUS
 62
     7
 10
211.05785251181811
 20
104.03227730104931
 30
0.0
 40
0.2
 50
90.0
 51
150.00000000000711
  0
LINE
  5
1B34A
  8
0
  6
CONTINUOUS
 62
     7
 10
210.88464743106121
 20
104.1322773010494
 30
0.0
 11
210.76917737722309
 21
103.9322773010494
 31
0.0
  0
ARC
  5
1B34B
  8
0
  6
CONTINUOUS
 62
     7
 10
210.4227672157094
 20
104.1322773010493
 30
0.0
 40
0.4
 50
270.0
 51
330.0000000000112
  0
LINE
  5
1B34C
  8
0
  6
CONTINUOUS
 62
     7
 10
206.69293780792671
 20
103.73227730104929
 30
0.0
 11
210.4227672157094
 21
103.73227730104929
 31
0.0
  0
ARC
  5
1B34D
  8
0
  6
CONTINUOUS
 62
     7
 10
206.69293780792671
 20
104.1322773010493
 30
0.0
 40
0.4
 50
210.00000000001509
 51
270.0
  0
LINE
  5
1B34E
  8
0
  6
CONTINUOUS
 62
     7
 10
206.2310575925749
 20
104.1322773010494
 30
0.0
 11
206.34652764641311
 21
103.9322773010493
 31
0.0
  0
ARC
  5
1B34F
  8
0
  6
CONTINUOUS
 62
     7
 10
206.057852511818
 20
104.03227730104931
 30
0.0
 40
0.2
 50
30.000000000011038
 51
90.0
  0
ARC
  5
1B350
  8
0
  6
CONTINUOUS
 10
213.69293780792671
 20
104.1322773010495
 30
0.0
 40
0.4
 50
210.00000000001509
 51
269.99999999993491
  0
LINE
  5
1B351
  8
0
  6
CONTINUOUS
 62
     7
 10
213.2310575925749
 20
104.1322773010494
 30
0.0
 11
213.34652764641299
 21
103.9322773010494
 31
0.0
  0
ARC
  5
1B352
  8
0
  6
CONTINUOUS
 62
     7
 10
213.05785251181811
 20
104.03227730104931
 30
0.0
 40
0.2
 50
30.000000000011038
 51
90.0
  0
LINE
  5
1B353
  8
0
  6
CONTINUOUS
 10
229.23150068948519
 20
143.67798542288489
 30
0.0
 11
217.58103250866151
 21
145.73227730104961
 31
0.0
  0
LINE
  5
1B355
  8
0
  6
HIDDEN
 62
     3
 10
191.67028807711631
 20
136.73227730104989
 30
0.0
 11
224.55785251181831
 21
136.73227730104989
 31
0.0
1001
ACAD
1000
ASC_BOUNDS
1002
{
1070
    19
1005
0
1005
0
1002
}
  0
LINE
  5
1B358
  8
0
  6
HIDDEN
 62
     3
 10
184.12483980992599
 20
135.73227730104989
 30
0.0
 11
184.12483980992599
 21
124.73227730105
 31
0.0
  0
LINE
  5
1B35A
  8
0
  6
HIDDEN
 62
     3
 10
181.55785251181831
 20
124.73227730105
 30
0.0
 11
181.55785251181831
 21
135.23227730105
 31
0.0
1001
ACAD
1000
ASC_BOUNDS
1002
{
1070
    19
1002
}
  0
LINE
  5
1B35B
  8
0
  6
HIDDEN
 62
     3
 10
177.05785251181831
 20
134.43227730104991
 30
0.0
 11
181.55785251181831
 21
134.43227730104991
 31
0.0
  0
LINE
  5
1B35D
  8
0
  6
HIDDEN
 62
     3
 10
184.55785251181811
 20
135.6162518972655
 30
0.0
 11
184.12483980992599
 21
135.73227730104989
 31
0.0
1001
ACAD
1000
ASC_BOUNDS
1002
{
1070
    19
1002
}
  0
ARC
  5
1B35E
  8
0
  6
HIDDEN
 62
     3
 10
182.05785251181831
 20
135.23227730105
 30
0.0
 40
0.5
 50
90.0
 51
180.0
1001
ACAD
1000
ASC_BOUNDS
1002
{
1070
    19
1002
}
  0
LINE
  5
1B35F
  8
0
  6
HIDDEN
 62
     3
 10
182.05785251181831
 20
135.73227730104989
 30
0.0
 11
184.12483980992599
 21
135.73227730104989
 31
0.0
1001
ACAD
1000
ASC_BOUNDS
1002
{
1070
    19
1002
}
  0
LINE
  5
1B363
  8
0
  6
HIDDEN
 62
     3
 10
191.67028807711631
 20
136.73227730104989
 30
0.0
 11
191.67028807711631
 21
136.35727730105
 31
0.0
  0
LINE
  5
1B36F
  8
0
 62
     0
 10
168.05785251181851
 20
100.98227730105
 30
0.0
 11
187.8927890023572
 21
100.98227730105
 31
0.0
  0
ARC
  5
1B370
  8
0
  6
CONTINUOUS
 10
168.05785251181851
 20
99.982277301049976
 30
0.0
 40
1.0
 50
90.0
 51
180.0
1001
ACAD
1000
ASC_BOUNDS
1002
{
1070
    19
1002
}
  0
LINE
  5
1B37B
  8
0
 62
     0
 10
168.05785251181851
 20
148.48227730104989
 30
0.0
 11
187.8927890023572
 21
148.48227730104989
 31
0.0
  0
ARC
  5
1B37C
  8
0
  6
CONTINUOUS
 10
168.05785251181851
 20
149.48227730104989
 30
0.0
 40
1.0
 50
180.0
 51
270.0
1001
ACAD
1000
ASC_BOUNDS
1002
{
1070
    19
1002
}
  0
LINE
  5
1B37D
  8
0
  6
CONTINUOUS
 10
189.7691773772236
 20
103.2322773010502
 30
0.0
 11
188.75881440614171
 21
101.4822773010499
 31
0.0
  0
ARC
  5
1B37E
  8
0
  6
CONTINUOUS
 10
187.8927890023572
 20
101.98227730105
 30
0.0
 40
1.0
 50
270.0
 51
329.99999999999977
  0
LINE
  5
1B37F
  8
0
  6
CONTINUOUS
 10
188.47013927154691
 20
101.1657807201223
 30
0.0
 11
188.47013927154691
 21
124.73227730105
 31
0.0
  0
DIMENSION
  5
1B380
  8
0
  6
CONTINUOUS
  2
*D20
 10
230.05785251181851
 20
86.300768963422016
 30
0.0
 11
210.0578525118184
 21
88.400768963421996
 31
0.0
 70
     0
 13
190.0578525118184
 23
103.54877388197779
 33
0.0
 14
230.05785251181851
 24
106.7713769322272
 34
0.0
1001
ACAD
1000
DSTYLE
1002
{
1070
   287
1070
     2
1070
    42
1040
0.6
1070
    43
1040
1.0
1070
    44
1040
1.0
1070
    47
1040
0.1
1070
    48
1040
0.1
1070
   141
1040
-1.0
1070
   146
1040
0.7
1070
   147
1040
0.6
1070
   271
1070
     8
1070
   272
1070
     8
1070
   275
1070
     1
1070
   283
1070
     0
1070
   284
1070
     8
1070
   289
1070
     2
1002
}
  0
ARC
  5
1B382
  8
0
  6
CONTINUOUS
 10
190.63520278100799
 20
146.73227730105
 30
0.0
 40
1.0
 50
210.00000000000031
 51
270.0
1001
ACAD
1000
ASC_BOUNDS
1002
{
1070
    19
1002
}
  0
LINE
  5
1B383
  8
0
  6
CONTINUOUS
 10
189.7691773772236
 20
146.23227730105
 30
0.0
 11
188.75881440614171
 21
147.9822773010502
 31
0.0
  0
ARC
  5
1B384
  8
0
  6
CONTINUOUS
 10
187.8927890023572
 20
147.4822773010502
 30
0.0
 40
1.0
 50
30.000000000000242
 51
90.0
  0
LINE
  5
1B385
  8
0
  6
HIDDEN
 62
     3
 10
152.05785251181871
 20
132.28227730105019
 30
0.0
 11
176.55785251181871
 21
132.2822773010499
 31
0.0
1001
ACAD
1000
ASC_BOUNDS
1002
{
1070
    19
1005
0
1005
0
1005
0
1005
0
1005
0
1005
0
1002
}
  0
LINE
  5
1B386
  8
0
  6
HIDDEN
 62
     3
 10
162.05785251181851
 20
132.73227730104969
 30
0.0
 11
177.0078525118185
 21
132.73227730104981
 31
0.0
1001
ACAD
1000
ASC_BOUNDS
1002
{
1070
    19
1005
0
1005
0
1005
0
1005
0
1005
0
1005
0
1002
}
  0
LINE
  5
1B387
  8
0
  6
HIDDEN
 62
     3
 10
162.05785251181851
 20
132.73227730104969
 30
0.0
 11
162.05785251181851
 21
124.73227730105
 31
0.0
  0
LINE
  5
1B388
  8
0
  6
HIDDEN
 62
     3
 10
176.55785251181851
 20
132.28227730104999
 30
0.0
 11
176.55785251181851
 21
124.73227730105
 31
0.0
  0
LINE
  5
1B389
  8
0
  6
HIDDEN
 62
     3
 10
176.55785251181851
 20
132.28227730104999
 30
0.0
 11
177.05785251181851
 21
132.78227730104999
 31
0.0
  0
LINE
  5
1B38A
  8
0
  6
HIDDEN
 62
     3
 10
152.05785251181871
 20
132.28227730105019
 30
0.0
 11
152.05785251181919
 21
124.7322773010457
 31
0.0
  0
LINE
  5
1B38C
  8
0
  6
HIDDEN
 62
     3
 10
162.05785251181851
 20
132.73227730104969
 30
0.0
 11
161.27842964841321
 21
132.2822773010501
 31
0.0
  0
LINE
  5
1B38D
  8
0
  6
HIDDEN
 62
     3
 10
152.05785251181871
 20
132.28227730105019
 30
0.0
 11
151.59597229646681
 21
131.48227730104969
 31
0.0
  0
LINE
  5
1B38E
  8
0
  6
HIDDEN
 62
     3
 10
151.59597229646681
 20
131.48227730104969
 30
0.0
 11
151.59597229646681
 21
124.73227730104971
 31
0.0
  0
ARC
  5
1B392
  8
0
  6
CONTINUOUS
 62
     7
 10
204.057852511818
 20
145.43227730105059
 30
0.0
 40
0.2
 50
209.99999999998869
 51
270.0
  0
LINE
  5
1B393
  8
0
  6
CONTINUOUS
 62
     7
 10
203.88464743106121
 20
145.33227730105051
 30
0.0
 11
203.769177377223
 21
145.5322773010505
 31
0.0
  0
ARC
  5
1B394
  8
0
  6
CONTINUOUS
 62
     7
 10
203.4227672157094
 20
145.3322773010506
 30
0.0
 40
0.4
 50
29.99999999998872
 51
90.0
  0
ARC
  5
1B395
  8
0
  6
CONTINUOUS
 62
     7
 10
204.057852511818
 20
104.03227730104931
 30
0.0
 40
0.2
 50
90.0
 51
150.0000000000112
  0
LINE
  5
1B396
  8
0
  6
CONTINUOUS
 62
     7
 10
203.88464743106121
 20
104.1322773010494
 30
0.0
 11
203.769177377223
 21
103.9322773010494
 31
0.0
  0
ARC
  5
1B397
  8
0
  6
CONTINUOUS
 62
     7
 10
203.4227672157094
 20
104.1322773010493
 30
0.0
 40
0.4
 50
270.0
 51
330.0000000000112
  0
LINE
  5
1B5CF
  8
0
  6
CONTINUOUS
 10
206.1269124041423
 20
104.21997581269009
 30
0.0
 11
206.1269124041423
 21
124.73227730105
 31
0.0
  0
LINE
  5
1B5D0
  8
0
  6
CONTINUOUS
 10
206.46199770025081
 20
103.8056786686783
 30
0.0
 11
206.46199770025081
 21
124.73227730104981
 31
0.0
  0
LINE
  5
1B5D1
  8
0
  6
CONTINUOUS
 10
210.98879261949381
 20
104.21997581269009
 30
0.0
 11
210.98879261949381
 21
124.73227730105
 31
0.0
  0
LINE
  5
1B5D2
  8
0
  6
CONTINUOUS
 10
210.65370732338531
 20
103.8056786686783
 30
0.0
 11
210.65370732338531
 21
124.73227730104981
 31
0.0
  0
LINE
  5
1B5D3
  8
0
  6
CONTINUOUS
 10
213.1269124041423
 20
104.21997581269009
 30
0.0
 11
213.1269124041423
 21
124.73227730105
 31
0.0
  0
LINE
  5
1B5D4
  8
0
  6
CONTINUOUS
 10
213.46199770025081
 20
103.8056786686783
 30
0.0
 11
213.46199770025081
 21
124.73227730104981
 31
0.0
  0
LINE
  5
1B5D5
  8
0
  6
CONTINUOUS
 10
217.58103250866151
 20
103.7322773010503
 30
0.0
 11
217.58103250866151
 21
124.73227730105
 31
0.0
  0
DIMENSION
  5
1B5D6
  8
0
  6
CONTINUOUS
  2
*D25
 10
258.30765959183623
 20
100.9822773010499
 30
0.0
 11
256.2076595918362
 21
124.7322773010501
 31
0.0
 70
     0
 13
187.8927890023572
 23
148.4822773010502
 33
0.0
 14
187.8927890023572
 24
100.98227730105
 34
0.0
 50
90.0
1001
ACAD
1000
DSTYLE
1002
{
1070
   287
1070
     2
1070
    42
1040
0.6
1070
    43
1040
1.0
1070
    44
1040
1.0
1070
    47
1040
0.1
1070
    48
1040
0.1
1070
   141
1040
-1.0
1070
   146
1040
0.7
1070
   147
1040
0.6
1070
   271
1070
     8
1070
   272
1070
     8
1070
   275
1070
     1
1070
   283
1070
     0
1070
   284
1070
     8
1070
   289
1070
     2
1002
}
  0
LINE
  5
1B5E3
  8
0
  6
HIDDEN
 62
     3
 10
164.55785251181851
 20
132.23227730104961
 30
0.0
 11
175.05785251181851
 21
132.23227730104961
 31
0.0
  0
LINE
  5
1B5E4
  8
0
  6
HIDDEN
 62
     3
 10
165.05785251181851
 20
132.73227730104961
 30
0.0
 11
174.55785251181851
 21
132.73227730104961
 31
0.0
  0
LINE
  5
1B5E5
  8
0
  6
HIDDEN
 62
     3
 10
165.05785251181851
 20
132.73227730104961
 30
0.0
 11
165.05785251181851
 21
124.73227730104961
 31
0.0
  0
LINE
  5
1B5E6
  8
0
  6
HIDDEN
 62
     3
 10
164.05785251181851
 20
131.73227730104961
 30
0.0
 11
164.05785251181851
 21
124.73227730104961
 31
0.0
  0
LINE
  5
1B5E7
  8
0
  6
HIDDEN
 62
     3
 10
165.05785251181851
 20
132.73227730104961
 30
0.0
 11
164.05785251181851
 21
131.73227730104961
 31
0.0
  0
LINE
  5
1B5E8
  8
0
  6
HIDDEN
 62
     3
 10
178.85785251181841
 20
132.73227730104961
 30
0.0
 11
178.85785251181841
 21
124.73227730104971
 31
0.0
  0
LINE
  5
1B5E9
  8
0
  6
HIDDEN
 62
     3
 10
179.05785251181851
 20
132.5322773010497
 30
0.0
 11
179.05785251181851
 21
124.73227730104961
 31
0.0
  0
LINE
  5
1B5EA
  8
0
  6
HIDDEN
 62
     3
 10
178.85785251181841
 20
132.73227730104961
 30
0.0
 11
179.05785251181851
 21
132.5322773010497
 31
0.0
  0
LINE
  5
1B5EB
  8
0
  6
HIDDEN
 62
     3
 10
177.05785251181851
 20
132.73227730104961
 30
0.0
 11
177.05785251181851
 21
124.73227730104971
 31
0.0
  0
LINE
  5
1B5EC
  8
0
  6
HIDDEN
 62
     3
 10
175.30785251181851
 20
131.98227730104961
 30
0.0
 11
177.05785251181851
 21
131.98227730104961
 31
0.0
  0
LINE
  5
1B5ED
  8
0
  6
HIDDEN
 62
     3
 10
175.30785251181851
 20
124.73227730104961
 30
0.0
 11
175.30785251181851
 21
131.98227730104961
 31
0.0
  0
LINE
  5
1B5EE
  8
0
  6
HIDDEN
 62
     3
 10
174.55785251181851
 20
132.73227730104961
 30
0.0
 11
174.55785251181851
 21
124.73227730104961
 31
0.0
  0
LINE
  5
1B5EF
  8
0
  6
HIDDEN
 62
     3
 10
174.55785251181851
 20
132.73227730104961
 30
0.0
 11
175.30785251181851
 21
131.98227730104961
 31
0.0
  0
LINE
  5
1B5F0
  8
0
  6
HIDDEN
 62
     3
 10
177.05785251181851
 20
132.73227730104961
 30
0.0
 11
178.85785251181841
 21
132.73227730104961
 31
0.0
  0
LINE
  5
1B5F3
  8
0
  6
HIDDEN
 62
     3
 10
188.18775632238609
 20
134.25727730105001
 30
0.0
 11
228.55785251181831
 21
134.25727730105001
 31
0.0
1001
ACAD
1000
ASC_BOUNDS
1002
{
1070
    19
1005
0
1005
0
1005
0
1002
}
  0
LINE
  5
1B5F5
  8
0
  6
HIDDEN
 62
     3
 10
188.18775632238609
 20
134.25727730105001
 30
0.0
 11
188.18775632238609
 21
124.73227730105
 31
0.0
  0
LINE
  5
1B5F6
  8
0
  6
HIDDEN
 62
     3
 10
188.05785251181831
 20
134.48227730105
 30
0.0
 11
188.05785251181831
 21
124.73227730105
 31
0.0
  0
LINE
  5
1B5F7
  8
0
  6
HIDDEN
 62
     3
 10
184.55785251181831
 20
135.6162518972655
 30
0.0
 11
184.55785251181831
 21
124.73227730105
 31
0.0
  0
LINE
  5
1B5F8
  8
0
  6
HIDDEN
 62
     3
 10
184.85785251181821
 20
134.48227730105
 30
0.0
 11
184.85785251181821
 21
124.73227730105
 31
0.0
  0
LINE
  5
1B5FA
  8
0
  6
HIDDEN
 62
     3
 10
184.85785251181821
 20
134.48227730105
 30
0.0
 11
188.05785251181851
 21
134.48227730105
 31
0.0
  0
POINT
  5
1B5FC
  8
DEFPOINTS
  6
HIDDEN
 62
     3
 10
184.55785251181831
 20
135.28227730104999
 30
0.0
  0
LINE
  5
1B5FE
  8
0
  6
HIDDEN
 62
     3
 10
214.48285251181849
 20
136.23227730104989
 30
0.0
 11
215.35785251181841
 21
135.35727730105
 31
0.0
  0
LINE
  5
1B601
  8
0
  6
HIDDEN
 62
     3
 10
224.55785251181831
 20
136.73227730104989
 30
0.0
 11
224.55785251181831
 21
136.63227730105001
 31
0.0
  0
LINE
  5
1B608
  8
0
  6
HIDDEN
 62
     3
 10
224.55785251181851
 20
136.73227730104989
 30
0.0
 11
224.55785251181851
 21
136.35727730105
 31
0.0
  0
ARC
  5
1B612
  8
0
  6
HIDDEN
 62
     3
 10
228.55785251181831
 20
135.75727730105001
 30
0.0
 40
1.5
 50
270.0
 51
0.0
1001
ACAD
1000
ASC_BOUNDS
1002
{
1070
    19
1005
0
1005
0
1005
0
1002
}
  0
DIMENSION
  5
1B643
  8
0
  6
CONTINUOUS
  2
*D26
 10
242.30765959183631
 20
134.25727730105001
 30
0.0
 11
242.3076595918362
 21
124.73227730105
 31
0.0
 70
   128
 13
228.55785251181831
 23
115.20727730105
 33
0.0
 14
228.55785251181831
 24
134.25727730105001
 34
0.0
 50
90.0
1001
ACAD
1000
DSTYLE
1002
{
1070
   287
1070
     2
1070
     3
1000
%%c<>
1070
    72
1070
     0
1070
    71
1070
     0
1070
    42
1040
0.6
1070
    43
1040
1.0
1070
    44
1040
1.0
1070
    47
1040
-0.02
1070
    48
1040
0.03
1070
    73
1070
     0
1070
   140
1040
3.0
1070
   141
1040
-0.2
1070
   144
1040
1.0
1070
   146
1040
0.7
1070
   147
1040
0.6
1070
   178
1070
     3
1070
   271
1070
     5
1070
   272
1070
     5
1070
   275
1070
     1
1070
   283
1070
     0
1070
   284
1070
     8
1070
   289
1070
     2
1002
}
  0
LINE
  5
1B663
  8
0
  6
HIDDEN
 62
     3
 10
200.7078525118184
 20
136.23227730105
 30
0.0
 11
214.48285251181849
 21
136.23227730104989
 31
0.0
  0
LINE
  5
1B664
  8
0
  6
HIDDEN
 62
     3
 10
188.05785251181851
 20
134.48227730105
 30
0.0
 11
188.18775632238609
 21
134.25727730105001
 31
0.0
  0
LINE
  5
1B665
  8
0
  6
HIDDEN
 62
     3
 10
184.85785251181821
 20
134.48227730105
 30
0.0
 11
184.55785251181831
 21
134.65548238180679
 31
0.0
  0
LINE
  5
1B667
  8
0
  6
HIDDEN
 62
     3
 10
215.35785251181841
 20
135.35727730105
 30
0.0
 11
223.55785251181851
 21
135.35727730105
 31
0.0
  0
LINE
  5
1B68A
  8
0
  6
HIDDEN
 62
     3
 10
192.67028807711631
 20
135.35727730105
 30
0.0
 11
199.83285251181849
 21
135.35727730105
 31
0.0
1001
ACAD
1000
ASC_BOUNDS
1002
{
1070
    19
1005
0
1005
0
1005
0
1002
}
  0
LINE
  5
1B68C
  8
0
  6
HIDDEN
 62
     3
 10
200.7078525118184
 20
136.23227730105
 30
0.0
 11
199.83285251181849
 21
135.35727730105
 31
0.0
  0
ARC
  5
1B8B8
  8
0
  6
HIDDEN
 62
     3
 10
223.55785251181851
 20
136.35727730105
 30
0.0
 40
1.0
 50
270.0
 51
0.0
  0
ARC
  5
1B8B9
  8
0
  6
HIDDEN
 62
     3
 10
192.67028807711631
 20
136.35727730105
 30
0.0
 40
1.0
 50
180.0
 51
270.0
  0
LINE
  5
1B8D8
  8
0
  6
HIDDEN
 62
     3
 10
161.0542774279734
 20
108.9584004254813
 30
0.0
 11
160.88319149674811
 21
110.913921567651
 31
0.0
1001
ACAD
1000
ASC_BOUNDS
1002
{
1070
    19
1002
}
  0
LINE
  5
1B8D9
  8
0
  6
HIDDEN
 62
     3
 10
155.0078525118183
 20
108.8752817217599
 30
0.0
 11
155.0078525118181
 21
117.18227730104979
 31
0.0
1001
ACAD
1000
ASC_BOUNDS
1002
{
1070
    19
1002
}
  0
ARC
  5
1B8DA
  8
0
  6
HIDDEN
 62
     3
 10
154.03105019425439
 20
111.333581753037
 30
0.0
 40
4.2793490506807217
 50
307.86711606294142
 51
358.0232031845913
  0
LINE
  5
1B8DB
  8
0
  6
HIDDEN
 62
     3
 10
161.05427742797289
 20
108.9584004254817
 30
0.0
 11
160.0791974861763
 21
110.35095890077289
 31
0.0
  0
LINE
  5
1B8DC
  8
0
  6
HIDDEN
 62
     3
 10
75.097192133149292
 20
115.79293726594049
 30
0.0
 11
75.769624226780707
 21
116.18116611621021
 31
0.0
  0
LINE
  5
1B8DD
  8
0
  6
HIDDEN
 62
     3
 10
75.097192133149292
 20
115.79293726594049
 30
0.0
 11
75.097192133149292
 21
124.7322758882347
 31
0.0
  0
ARC
  5
1B8DE
  8
0
  6
HIDDEN
 62
     3
 10
76.157852511818419
 20
114.73227730105
 30
0.0
 40
1.5
 50
135.00001117594499
 51
180.0
1001
ACAD
1000
ASC_BOUNDS
1002
{
1070
    19
1002
}
  0
LINE
  5
1B8DF
  8
0
  6
HIDDEN
 62
     3
 10
104.6578525118184
 20
116.73227730105
 30
0.0
 11
106.0434931578734
 21
117.53227730105
 31
0.0
1001
ACAD
1000
ASC_BOUNDS
1002
{
1070
    19
1002
}
  0
LINE
  5
1B8E0
  8
0
  6
HIDDEN
 62
     3
 10
84.270793614205104
 20
117.5322773010499
 30
0.0
 11
119.6578525118184
 21
117.53227730105
 31
0.0
1001
ACAD
1000
ASC_BOUNDS
1002
{
1070
    19
1002
}
  0
LINE
  5
1B8E1
  8
0
  6
HIDDEN
 62
     3
 10
83.657852511818419
 20
115.93227730104989
 30
0.0
 11
83.657741027214783
 21
124.73227730105
 31
0.0
1001
ACAD
1000
ASC_BOUNDS
1002
{
1070
    19
1002
}
  0
LINE
  5
1B8E2
  8
0
  6
HIDDEN
 62
     3
 10
104.6578525118184
 20
124.73227730105
 30
0.0
 11
104.6578525118184
 21
116.73227730105
 31
0.0
1001
ACAD
1000
ASC_BOUNDS
1002
{
1070
    19
1002
}
  0
LINE
  5
1B8E3
  8
0
  6
HIDDEN
 62
     3
 10
84.270793614205104
 20
117.5322773010499
 30
0.0
 11
84.270793614205104
 21
124.73227730105
 31
0.0
  0
LINE
  5
1B8E4
  8
0
  6
HIDDEN
 62
     3
 10
81.657852511618344
 20
115.93227730104999
 30
0.0
 11
81.657852511618344
 21
124.7322804227155
 31
0.0
  0
LINE
  5
1B8E5
  8
0
  6
HIDDEN
 62
     3
 10
80.538237269347974
 20
116.2322773010499
 30
0.0
 11
80.538237269347974
 21
124.7322773010499
 31
0.0
  0
LINE
  5
1B8E6
  8
0
  6
HIDDEN
 62
     3
 10
75.769624226780707
 20
116.18116611621021
 30
0.0
 11
75.769624226780707
 21
124.7322758882347
 31
0.0
  0
LINE
  5
1B8E7
  8
0
  6
HIDDEN
 62
     3
 10
104.6578525118184
 20
116.73227730105
 30
0.0
 11
83.812205531758082
 21
116.73227730105
 31
0.0
1001
ACAD
1000
ASC_BOUNDS
1002
{
1070
    19
1002
}
  0
ARC
  5
1B8E8
  8
0
  6
HIDDEN
 62
     3
 10
76.157852511818419
 20
114.73227730105
 30
0.0
 40
1.5
 50
90.000022351905045
 51
104.9999888240595
1001
ACAD
1000
ASC_BOUNDS
1002
{
1070
    19
1002
}
  0
LINE
  5
1B8E9
  8
0
  6
HIDDEN
 62
     3
 10
76.157852511818419
 20
116.2322773010499
 30
0.0
 11
80.538237269347974
 21
116.2322773010499
 31
0.0
  0
LINE
  5
1B8EA
  8
0
  6
HIDDEN
 62
     3
 10
81.657852511618344
 20
115.93227730104999
 30
0.0
 11
80.538237269347974
 21
116.2322773010499
 31
0.0
  0
LINE
  5
1B8EB
  8
0
  6
HIDDEN
 62
     3
 10
83.657845788261056
 20
116.46299905435269
 30
0.0
 11
84.270793614205104
 21
117.5322773010499
 31
0.0
1001
ACAD
1000
ASC_BOUNDS
1002
{
1070
    19
1002
}
  0
LINE
  5
1B8EC
  8
0
  6
HIDDEN
 62
     3
 10
81.657852511618344
 20
115.93227730104999
 30
0.0
 11
83.657852511818419
 21
115.93227730104989
 31
0.0
  0
LINE
  5
1B8ED
  8
0
  6
HIDDEN
 62
     3
 10
119.92130642475369
 20
117.9822773010499
 30
0.0
 11
119.92130642475369
 21
124.73227730105
 31
0.0
  0
LINE
  5
1B8EE
  8
0
  6
HIDDEN
 62
     3
 10
119.6578525118184
 20
117.53227730105
 30
0.0
 11
119.6578525118184
 21
124.73227730105
 31
0.0
  0
LINE
  5
1B8EF
  8
0
  6
HIDDEN
 62
     3
 10
119.92130642475369
 20
117.9822773010499
 30
0.0
 11
151.5959722964669
 21
117.9822773010499
 31
0.0
1001
ACAD
1000
ASC_BOUNDS
1002
{
1070
    19
1002
}
  0
LINE
  5
1B8F0
  8
0
  6
HIDDEN
 62
     3
 10
119.6578525118184
 20
117.53227730105
 30
0.0
 11
119.92130642475369
 21
117.9822773010499
 31
0.0
1001
ACAD
1000
ASC_BOUNDS
1002
{
1070
    19
1002
}
  0
ARC
  5
1B8F1
  8
0
  6
CONTINUOUS
 10
155.0078525118183
 20
124.73227730105
 30
0.0
 40
8.0499999999999545
 50
0.0
 51
90.0
  0
LINE
  5
1B8F2
  8
0
  6
CONTINUOUS
 62
     7
 10
161.65785251181839
 20
156.14052559151381
 30
0.0
 11
161.65785251181839
 21
131.72513079586889
 31
0.0
  0
LINE
  5
1B8F3
  8
0
  6
CONTINUOUS
 62
     7
 10
140.05785251181851
 20
146.95727730105
 30
0.0
 11
140.05785251181851
 21
124.73227730105
 31
0.0
  0
LINE
  5
1B8F4
  8
0
  6
CONTINUOUS
 62
     7
 10
141.05785251181851
 20
146.68932810861881
 30
0.0
 11
141.05785251181851
 21
124.73227730105
 31
0.0
  0
LINE
  5
1B8F5
  8
0
  6
CONTINUOUS
 62
     7
 10
151.65785251181839
 20
156.14052559151389
 30
0.0
 11
151.65785251181839
 21
134.38227730105021
 31
0.0
  0
LINE
  5
1B8F6
  8
0
  6
HIDDEN
 62
     3
 10
159.10411754437879
 20
111.7435173760654
 30
0.0
 11
160.88319149674811
 21
110.9139215676513
 31
0.0
1001
ACAD
1000
ASC_BOUNDS
1002
{
1070
    19
1002
}
  0
LINE
  5
1B8F7
  8
0
  6
HIDDEN
 62
     3
 10
159.10411754437919
 20
111.7435173760649
 30
0.0
 11
158.30785251181851
 21
111.18596659785329
 31
0.0
1001
ACAD
1000
ASC_BOUNDS
1002
{
1070
    19
1002
}
  0
LINE
  5
1B8F8
  8
0
  6
HIDDEN
 62
     3
 10
158.30785251181851
 20
111.18596659785329
 30
0.0
 11
158.30785251181851
 21
117.18227730104979
 31
0.0
1001
ACAD
1000
ASC_BOUNDS
1002
{
1070
    19
1002
}
  0
LINE
  5
1B8F9
  8
0
  6
HIDDEN
 62
     3
 10
159.10411754437919
 20
111.7435173760649
 30
0.0
 11
160.07919748617579
 21
110.35095890077341
 31
0.0
  0
LINE
  5
1B8FA
  8
0
  6
HIDDEN
 62
     3
 10
148.93906969454341
 20
100.10900826692939
 30
0.0
 11
144.4337334509537
 21
96.954337866998785
 31
0.0
1001
ACAD
1000
ASC_BOUNDS
1002
{
1070
    19
1002
}
  0
LINE
  5
1B8FB
  8
0
  6
HIDDEN
 62
     3
 10
155.0078525118183
 20
104.72464811997121
 30
0.0
 11
144.50740613333531
 21
97.372156411190531
 31
0.0
1001
ACAD
1000
ASC_BOUNDS
1002
{
1070
    19
1002
}
  0
LINE
  5
1B8FC
  8
0
  6
HIDDEN
 62
     3
 10
144.4337334509537
 20
96.954337866998785
 30
0.0
 11
143.28658057825211
 21
98.592641955576596
 31
0.0
  0
LINE
  5
1B8FD
  8
0
  6
HIDDEN
 62
     3
 10
144.50740613333531
 20
97.372156411190531
 30
0.0
 11
143.53232619153869
 21
98.764714886481784
 31
0.0
  0
LINE
  5
1B8FE
  8
0
  6
HIDDEN
 62
     3
 10
155.0078525118183
 20
108.8752817217599
 30
0.0
 11
142.55724624974209
 21
100.15727336177279
 31
0.0
1001
ACAD
1000
ASC_BOUNDS
1002
{
1070
    19
1002
}
  0
LINE
  5
1B8FF
  8
0
  6
HIDDEN
 62
     3
 10
146.6447639491393
 20
103.385616444085
 30
0.0
 11
147.24248076799489
 21
103.4379098897337
 31
0.0
1001
ACAD
1000
ASC_BOUNDS
1002
{
1070
    19
1002
}
  0
LINE
  5
1B900
  8
0
  6
HIDDEN
 62
     3
 10
146.6447639491393
 20
103.385616444085
 30
0.0
 11
142.1394277055501
 21
100.23094604415409
 31
0.0
1001
ACAD
1000
ASC_BOUNDS
1002
{
1070
    19
1002
}
  0
LINE
  5
1B901
  8
0
  6
HIDDEN
 62
     3
 10
142.1394277055501
 20
100.23094604415409
 30
0.0
 11
142.05785251181851
 21
100.17382647857229
 31
0.0
1001
ACAD
1000
ASC_BOUNDS
1002
{
1070
    19
1002
}
  0
LINE
  5
1B902
  8
0
  6
HIDDEN
 62
     3
 10
148.93906969454341
 20
100.10900826692919
 30
0.0
 11
149.19264065158811
 21
100.6527929391515
 31
0.0
1001
ACAD
1000
ASC_BOUNDS
1002
{
1070
    19
1002
}
  0
LINE
  5
1B903
  8
0
  6
HIDDEN
 62
     3
 10
147.79191682184131
 20
101.7473123555072
 30
0.0
 11
148.93906969454341
 21
100.10900826692919
 31
0.0
1001
ACAD
1000
ASC_BOUNDS
1002
{
1070
    19
1002
}
  0
LINE
  5
1B904
  8
0
  6
HIDDEN
 62
     3
 10
147.79191682184131
 20
101.7473123555072
 30
0.0
 11
146.6447639491393
 21
103.385616444085
 31
0.0
1001
ACAD
1000
ASC_BOUNDS
1002
{
1070
    19
1002
}
  0
LINE
  5
1B905
  8
0
  6
HIDDEN
 62
     3
 10
142.1394277055501
 20
100.23094604415409
 30
0.0
 11
142.55724624974209
 21
100.15727336177299
 31
0.0
1001
ACAD
1000
ASC_BOUNDS
1002
{
1070
    19
1002
}
  0
LINE
  5
1B906
  8
0
  6
HIDDEN
 62
     3
 10
142.55724624974209
 20
100.15727336177299
 30
0.0
 11
143.53232619153869
 21
98.764714886481784
 31
0.0
  0
LINE
  5
1B907
  8
0
  6
HIDDEN
 62
     3
 10
142.1394277055501
 20
100.23094604415409
 30
0.0
 11
143.28658057825211
 21
98.592641955576369
 31
0.0
  0
LINE
  5
1B908
  8
0
  6
HIDDEN
 62
     3
 10
158.65785251181839
 20
99.415152281495352
 30
0.0
 11
158.65785251181839
 21
104.1572773010501
 31
0.0
1001
ACAD
1000
ASC_BOUNDS
1002
{
1070
    19
1002
}
  0
LINE
  5
1B909
  8
0
  6
HIDDEN
 62
     3
 10
158.65785251181839
 20
104.1572773010501
 30
0.0
 11
158.30785251181851
 21
104.7742760457762
 31
0.0
1001
ACAD
1000
ASC_BOUNDS
1002
{
1070
    19
1002
}
  0
LINE
  5
1B90A
  8
0
  6
HIDDEN
 62
     3
 10
158.30785251181851
 20
99.617714713054383
 30
0.0
 11
158.30785251181851
 21
107.0353329960634
 31
0.0
1001
ACAD
1000
ASC_BOUNDS
1002
{
1070
    19
1002
}
  0
LINE
  5
1B90B
  8
0
  6
HIDDEN
 62
     3
 10
161.05427742797289
 20
108.9584004254817
 30
0.0
 11
158.30785251181851
 21
107.0353329960634
 31
0.0
1001
ACAD
1000
ASC_BOUNDS
1002
{
1070
    19
1002
}
  0
LINE
  5
1B90C
  8
0
  6
HIDDEN
 62
     3
 10
154.65785251181839
 20
104.1572773010501
 30
0.0
 11
154.9611502939988
 21
104.6919468750026
 31
0.0
1001
ACAD
1000
ASC_BOUNDS
1002
{
1070
    19
1002
}
  0
LINE
  5
1B90D
  8
0
  6
HIDDEN
 62
     3
 10
154.65785251181839
 20
99.415152281495352
 30
0.0
 11
154.65785251181839
 21
104.1572773010501
 31
0.0
1001
ACAD
1000
ASC_BOUNDS
1002
{
1070
    19
1002
}
  0
LINE
  5
1B90E
  8
0
  6
HIDDEN
 62
     3
 10
154.65785251181839
 20
104.1572773010501
 30
0.0
 11
156.65785251181839
 21
104.1572773010499
 31
0.0
1001
ACAD
1000
ASC_BOUNDS
1002
{
1070
    19
1002
}
  0
LINE
  5
1B90F
  8
0
  6
HIDDEN
 62
     3
 10
155.0078525118183
 20
99.617714713054383
 30
0.0
 11
155.0078525118183
 21
104.72464811997121
 31
0.0
1001
ACAD
1000
ASC_BOUNDS
1002
{
1070
    19
1002
}
  0
LINE
  5
1B910
  8
0
  6
HIDDEN
 62
     3
 10
158.65785251181839
 20
104.1572773010501
 30
0.0
 11
156.65785251181839
 21
104.1572773010499
 31
0.0
1001
ACAD
1000
ASC_BOUNDS
1002
{
1070
    19
1002
}
  0
ARC
  5
1B911
  8
0
  6
HIDDEN
 62
     3
 10
156.4669953194184
 20
109.5526475740667
 30
0.0
 40
1.6087020329577379
 50
204.90175455870249
 51
276.81364771210201
  0
ARC
  5
1B912
  8
0
  6
HIDDEN
 62
     3
 10
156.7228790906542
 20
106.13228638485209
 30
0.0
 40
1.824180344104438
 50
29.672546122072479
 51
92.042856148724667
  0
ARC
  5
1B913
  8
0
  6
HIDDEN
 62
     3
 10
158.91555306831151
 20
104.7655449249545
 30
0.0
 40
3.9079145573915448
 50
125.2907009447582
 51
180.59961830275881
  0
LINE
  5
1B914
  8
0
  6
HIDDEN
 62
     3
 10
144.4337334509537
 20
96.954337866998785
 30
0.0
 11
142.05785251181851
 21
95.290728123527401
 31
0.0
1001
ACAD
1000
ASC_BOUNDS
1002
{
1070
    19
1002
}
  0
LINE
  5
1B915
  8
0
  6
HIDDEN
 62
     3
 10
144.4337334509537
 20
96.954337866998785
 30
0.0
 11
144.50740613333531
 21
97.372156411190531
 31
0.0
1001
ACAD
1000
ASC_BOUNDS
1002
{
1070
    19
1002
}
  0
LINE
  5
1B916
  8
0
  6
CONTINUOUS
 10
155.0078525118183
 20
132.78227730104999
 30
0.0
 11
143.65785251181819
 21
132.7822773010501
 31
0.0
  0
ARC
  5
1B917
  8
0
  6
CONTINUOUS
 10
155.0078525118183
 20
124.7322773010501
 30
0.0
 40
9.650000000000011
 50
0.0
 51
90.0
  0
LINE
  5
1B918
  8
0
  6
CONTINUOUS
 10
143.65785251181831
 20
134.38227730105021
 30
0.0
 11
155.0078525118183
 21
134.38227730105021
 31
0.0
  0
ARC
  5
1B919
  8
0
  6
CONTINUOUS
 10
143.65785251181831
 20
135.98227730105009
 30
0.0
 40
1.6000000000000001
 50
180.0
 51
270.0
  0
ARC
  5
1B91A
  8
0
  6
CONTINUOUS
 10
143.65785251181819
 20
134.3822773010501
 30
0.0
 40
1.6000000000000001
 50
180.0
 51
270.0
  0
LINE
  5
1B91B
  8
0
  6
HIDDEN
 62
     3
 10
177.05785251181851
 20
124.73227730105
 30
0.0
 11
177.05785251181851
 21
115.03227730105
 31
0.0
  0
LINE
  5
1B91C
  8
0
  6
CONTINUOUS
 10
203.98879261949381
 20
145.2445787894099
 30
0.0
 11
203.98879261949381
 21
124.73227730105
 31
0.0
  0
LINE
  5
1B91D
  8
0
  6
CONTINUOUS
 10
203.65370732338531
 20
145.6588759334216
 30
0.0
 11
203.65370732338531
 21
124.7322773010501
 31
0.0
  0
LINE
  5
1B91E
  8
0
  6
CONTINUOUS
 10
190.0578525118184
 20
145.915780720122
 30
0.0
 11
190.05785251181851
 21
124.73227730104981
 31
0.0
  0
LINE
  5
1B91F
  8
0
  6
HIDDEN
 62
     3
 10
191.67028807711631
 20
112.7322773010499
 30
0.0
 11
224.55785251181831
 21
112.7322773010499
 31
0.0
1001
ACAD
1000
ASC_BOUNDS
1002
{
1070
    19
1005
0
1005
0
1002
}
  0
LINE
  5
1B920
  8
0
  6
HIDDEN
 62
     3
 10
184.12483980992599
 20
113.7322773010499
 30
0.0
 11
184.12483980992599
 21
124.73227730105
 31
0.0
  0
LINE
  5
1B921
  8
0
  6
HIDDEN
 62
     3
 10
181.55785251181831
 20
124.73227730105
 30
0.0
 11
181.55785251181831
 21
114.23227730105
 31
0.0
1001
ACAD
1000
ASC_BOUNDS
1002
{
1070
    19
1002
}
  0
LINE
  5
1B922
  8
0
  6
HIDDEN
 62
     3
 10
177.05785251181831
 20
115.03227730105
 30
0.0
 11
181.55785251181831
 21
115.03227730105
 31
0.0
  0
LINE
  5
1B923
  8
0
  6
HIDDEN
 62
     3
 10
184.55785251181811
 20
113.8483027048344
 30
0.0
 11
184.12483980992599
 21
113.7322773010499
 31
0.0
1001
ACAD
1000
ASC_BOUNDS
1002
{
1070
    19
1002
}
  0
ARC
  5
1B924
  8
0
  6
HIDDEN
 62
     3
 10
182.05785251181831
 20
114.23227730105
 30
0.0
 40
0.5
 50
180.0
 51
270.0
1001
ACAD
1000
ASC_BOUNDS
1002
{
1070
    19
1002
}
  0
LINE
  5
1B925
  8
0
  6
HIDDEN
 62
     3
 10
182.05785251181831
 20
113.7322773010499
 30
0.0
 11
184.12483980992599
 21
113.7322773010499
 31
0.0
1001
ACAD
1000
ASC_BOUNDS
1002
{
1070
    19
1002
}
  0
LINE
  5
1B926
  8
0
  6
HIDDEN
 62
     3
 10
191.67028807711631
 20
112.7322773010499
 30
0.0
 11
191.67028807711631
 21
113.1072773010499
 31
0.0
  0
ARC
  5
1B927
  8
0
  6
HIDDEN
 62
     3
 10
192.67028807711631
 20
113.1072773010499
 30
0.0
 40
1.0
 50
90.0
 51
180.0
  0
LINE
  5
1B928
  8
0
  6
CONTINUOUS
 10
188.47013927154691
 20
148.29877388197761
 30
0.0
 11
188.47013927154691
 21
124.73227730105
 31
0.0
  0
LINE
  5
1B929
  8
0
  6
HIDDEN
 62
     3
 10
152.05785251181871
 20
117.18227730104969
 30
0.0
 11
176.55785251181871
 21
117.18227730104999
 31
0.0
1001
ACAD
1000
ASC_BOUNDS
1002
{
1070
    19
1005
0
1005
0
1005
0
1005
0
1005
0
1005
0
1002
}
  0
LINE
  5
1B92A
  8
0
  6
HIDDEN
 62
     3
 10
162.05785251181851
 20
116.7322773010502
 30
0.0
 11
177.0078525118185
 21
116.7322773010501
 31
0.0
1001
ACAD
1000
ASC_BOUNDS
1002
{
1070
    19
1005
0
1005
0
1005
0
1005
0
1005
0
1005
0
1002
}
  0
LINE
  5
1B92B
  8
0
  6
HIDDEN
 62
     3
 10
162.05785251181851
 20
116.7322773010502
 30
0.0
 11
162.05785251181851
 21
124.73227730105
 31
0.0
  0
LINE
  5
1B92C
  8
0
  6
HIDDEN
 62
     3
 10
176.55785251181851
 20
117.18227730104989
 30
0.0
 11
176.55785251181851
 21
124.73227730105
 31
0.0
  0
LINE
  5
1B92D
  8
0
  6
HIDDEN
 62
     3
 10
176.55785251181851
 20
117.18227730104989
 30
0.0
 11
177.05785251181851
 21
116.68227730104989
 31
0.0
  0
LINE
  5
1B92E
  8
0
  6
HIDDEN
 62
     3
 10
152.05785251181871
 20
117.18227730104969
 30
0.0
 11
152.05785251181919
 21
124.7322773010542
 31
0.0
  0
LINE
  5
1B92F
  8
0
  6
HIDDEN
 62
     3
 10
164.55785251181851
 20
117.2322773010503
 30
0.0
 11
175.05785251181851
 21
117.2322773010503
 31
0.0
  0
LINE
  5
1B930
  8
0
  6
HIDDEN
 62
     3
 10
165.05785251181851
 20
116.7322773010503
 30
0.0
 11
174.55785251181851
 21
116.7322773010503
 31
0.0
  0
LINE
  5
1B931
  8
0
  6
HIDDEN
 62
     3
 10
165.05785251181851
 20
116.7322773010503
 30
0.0
 11
165.05785251181851
 21
124.7322773010503
 31
0.0
  0
LINE
  5
1B932
  8
0
  6
HIDDEN
 62
     3
 10
164.05785251181851
 20
117.7322773010503
 30
0.0
 11
164.05785251181851
 21
124.7322773010503
 31
0.0
  0
LINE
  5
1B933
  8
0
  6
HIDDEN
 62
     3
 10
165.05785251181851
 20
116.7322773010503
 30
0.0
 11
164.05785251181851
 21
117.7322773010503
 31
0.0
  0
LINE
  5
1B934
  8
0
  6
HIDDEN
 62
     3
 10
178.85785251181841
 20
116.7322773010503
 30
0.0
 11
178.85785251181841
 21
124.7322773010502
 31
0.0
  0
LINE
  5
1B935
  8
0
  6
HIDDEN
 62
     3
 10
179.05785251181851
 20
116.93227730105021
 30
0.0
 11
179.05785251181851
 21
124.7322773010503
 31
0.0
  0
LINE
  5
1B936
  8
0
  6
HIDDEN
 62
     3
 10
178.85785251181841
 20
116.7322773010503
 30
0.0
 11
179.05785251181851
 21
116.93227730105021
 31
0.0
  0
LINE
  5
1B937
  8
0
  6
HIDDEN
 62
     3
 10
177.05785251181851
 20
116.7322773010503
 30
0.0
 11
177.05785251181851
 21
124.7322773010502
 31
0.0
  0
LINE
  5
1B938
  8
0
  6
HIDDEN
 62
     3
 10
175.30785251181851
 20
117.4822773010503
 30
0.0
 11
177.05785251181851
 21
117.4822773010503
 31
0.0
  0
LINE
  5
1B939
  8
0
  6
HIDDEN
 62
     3
 10
175.30785251181851
 20
124.7322773010503
 30
0.0
 11
175.30785251181851
 21
117.4822773010503
 31
0.0
  0
LINE
  5
1B93A
  8
0
  6
HIDDEN
 62
     3
 10
174.55785251181851
 20
116.7322773010503
 30
0.0
 11
174.55785251181851
 21
124.7322773010503
 31
0.0
  0
LINE
  5
1B93B
  8
0
  6
HIDDEN
 62
     3
 10
174.55785251181851
 20
116.7322773010503
 30
0.0
 11
175.30785251181851
 21
117.4822773010503
 31
0.0
  0
LINE
  5
1B93C
  8
0
  6
HIDDEN
 62
     3
 10
177.05785251181851
 20
116.7322773010503
 30
0.0
 11
178.85785251181841
 21
116.7322773010503
 31
0.0
  0
LINE
  5
1B93D
  8
0
  6
HIDDEN
 62
     3
 10
162.05785251181851
 20
116.7322773010502
 30
0.0
 11
161.27842964841321
 21
117.18227730104979
 31
0.0
  0
LINE
  5
1B93E
  8
0
  6
HIDDEN
 62
     3
 10
152.05785251181871
 20
117.18227730104969
 30
0.0
 11
151.59597229646681
 21
117.9822773010502
 31
0.0
  0
LINE
  5
1B93F
  8
0
  6
HIDDEN
 62
     3
 10
151.59597229646681
 20
117.9822773010502
 30
0.0
 11
151.59597229646681
 21
124.7322773010502
 31
0.0
  0
LINE
  5
1B940
  8
0
  6
CONTINUOUS
 10
206.1269124041423
 20
145.2445787894099
 30
0.0
 11
206.1269124041423
 21
124.73227730105
 31
0.0
  0
LINE
  5
1B941
  8
0
  6
CONTINUOUS
 10
206.46199770025081
 20
145.6588759334216
 30
0.0
 11
206.46199770025081
 21
124.7322773010501
 31
0.0
  0
LINE
  5
1B942
  8
0
  6
CONTINUOUS
 10
210.98879261949381
 20
145.2445787894099
 30
0.0
 11
210.98879261949381
 21
124.73227730105
 31
0.0
  0
LINE
  5
1B943
  8
0
  6
CONTINUOUS
 10
210.65370732338531
 20
145.6588759334216
 30
0.0
 11
210.65370732338531
 21
124.7322773010501
 31
0.0
  0
LINE
  5
1B944
  8
0
  6
CONTINUOUS
 10
213.1269124041423
 20
145.2445787894099
 30
0.0
 11
213.1269124041423
 21
124.73227730105
 31
0.0
  0
LINE
  5
1B945
  8
0
  6
CONTINUOUS
 10
213.46199770025081
 20
145.6588759334216
 30
0.0
 11
213.46199770025081
 21
124.7322773010501
 31
0.0
  0
LINE
  5
1B946
  8
0
  6
CONTINUOUS
 10
217.58103250866151
 20
145.73227730104961
 30
0.0
 11
217.58103250866151
 21
124.73227730105
 31
0.0
  0
LINE
  5
1B947
  8
0
  6
HIDDEN
 62
     3
 10
188.18775632238609
 20
115.20727730105
 30
0.0
 11
228.55785251181831
 21
115.20727730105
 31
0.0
1001
ACAD
1000
ASC_BOUNDS
1002
{
1070
    19
1005
0
1005
0
1005
0
1002
}
  0
LINE
  5
1B948
  8
0
  6
HIDDEN
 62
     3
 10
188.18775632238609
 20
115.20727730105
 30
0.0
 11
188.18775632238609
 21
124.73227730105
 31
0.0
  0
LINE
  5
1B949
  8
0
  6
HIDDEN
 62
     3
 10
188.05785251181831
 20
114.9822773010499
 30
0.0
 11
188.05785251181831
 21
124.7322773010499
 31
0.0
  0
LINE
  5
1B94A
  8
0
  6
HIDDEN
 62
     3
 10
184.55785251181831
 20
113.8483027048344
 30
0.0
 11
184.55785251181831
 21
124.73227730105
 31
0.0
  0
LINE
  5
1B94B
  8
0
  6
HIDDEN
 62
     3
 10
184.85785251181821
 20
114.9822773010499
 30
0.0
 11
184.85785251181821
 21
124.73227730105
 31
0.0
  0
LINE
  5
1B94C
  8
0
  6
HIDDEN
 62
     3
 10
184.85785251181821
 20
114.9822773010499
 30
0.0
 11
188.05785251181851
 21
114.9822773010499
 31
0.0
  0
POINT
  5
1B94D
  8
DEFPOINTS
  6
HIDDEN
 62
     3
 10
184.55785251181831
 20
114.18227730104989
 30
0.0
  0
LINE
  5
1B94E
  8
0
  6
HIDDEN
 62
     3
 10
214.48285251181849
 20
113.23227730105
 30
0.0
 11
215.35785251181841
 21
114.1072773010499
 31
0.0
  0
LINE
  5
1B94F
  8
0
  6
HIDDEN
 62
     3
 10
224.55785251181831
 20
112.7322773010499
 30
0.0
 11
224.55785251181831
 21
112.8322773010499
 31
0.0
  0
LINE
  5
1B950
  8
0
  6
HIDDEN
 62
     3
 10
224.55785251181851
 20
112.7322773010499
 30
0.0
 11
224.55785251181851
 21
113.1072773010499
 31
0.0
  0
ARC
  5
1B951
  8
0
  6
HIDDEN
 62
     3
 10
223.55785251181851
 20
113.1072773010499
 30
0.0
 40
1.0
 50
0.0
 51
90.0
  0
ARC
  5
1B952
  8
0
  6
HIDDEN
 62
     3
 10
228.55785251181831
 20
113.7072773010499
 30
0.0
 40
1.5
 50
0.0
 51
90.0
1001
ACAD
1000
ASC_BOUNDS
1002
{
1070
    19
1005
0
1005
0
1005
0
1002
}
  0
LINE
  5
1B953
  8
0
  6
HIDDEN
 62
     3
 10
200.7078525118184
 20
113.23227730105
 30
0.0
 11
214.48285251181849
 21
113.23227730105
 31
0.0
  0
LINE
  5
1B954
  8
0
  6
HIDDEN
 62
     3
 10
188.05785251181851
 20
114.9822773010499
 30
0.0
 11
188.18775632238609
 21
115.20727730105
 31
0.0
  0
LINE
  5
1B955
  8
0
  6
HIDDEN
 62
     3
 10
184.85785251181821
 20
114.9822773010499
 30
0.0
 11
184.55785251181831
 21
114.8090722202931
 31
0.0
  0
LINE
  5
1B956
  8
0
  6
HIDDEN
 62
     3
 10
215.35785251181841
 20
114.1072773010499
 30
0.0
 11
223.55785251181851
 21
114.1072773010499
 31
0.0
  0
LINE
  5
1B957
  8
0
  6
HIDDEN
 62
     3
 10
192.67028807711631
 20
114.1072773010499
 30
0.0
 11
199.83285251181849
 21
114.1072773010499
 31
0.0
1001
ACAD
1000
ASC_BOUNDS
1002
{
1070
    19
1005
0
1005
0
1005
0
1002
}
  0
LINE
  5
1B958
  8
0
  6
HIDDEN
 62
     3
 10
200.7078525118184
 20
113.23227730105
 30
0.0
 11
199.83285251181849
 21
114.1072773010499
 31
0.0
  0
LINE
  5
1B959
  8
0
  6
CENTER
 62
     2
 10
156.65785251181839
 20
97.515509781537844
 30
0.0
 11
156.65785251181879
 21
117.18227730104979
 31
0.0
1001
ACAD
1000
ASC_BOUNDS
1002
{
1070
    19
1002
}
  0
LINE
  5
1B95A
  8
0
  6
CENTER
 62
     2
 10
162.11286197853681
 20
111.7749461085133
 30
0.0
 11
142.05785251181851
 21
97.73227730104999
 31
0.0
  0
DIMENSION
  5
1B99A
  8
0
  6
CONTINUOUS
  2
*D27
 10
230.05785251181831
 20
165.81281494482789
 30
0.0
 11
209.05785251181831
 21
167.91311022041839
 31
0.0
 70
     0
 13
188.05785251181831
 23
134.48227730105
 33
0.0
 14
230.05785251181831
 24
142.69317766987271
 34
0.0
1001
ACAD
1000
DSTYLE
1002
{
1070
   287
1070
     2
1070
    42
1040
0.6
1070
    43
1040
1.0
1070
    44
1040
1.0
1070
    47
1040
0.1
1070
    48
1040
0.1
1070
   141
1040
-1.0
1070
   146
1040
0.7
1070
   147
1040
0.6
1070
   271
1070
     8
1070
   272
1070
     8
1070
   275
1070
     1
1070
   283
1070
     0
1070
   284
1070
     8
1070
   289
1070
     2
1002
}
  0
TEXT
  5
1B9A7
  8
0
  6
CONTINUOUS
 62
     3
 10
200.0684386146049
 20
9.2651194740786877
 30
0.0
 40
4.0
  1
BT40AD/B-HC19.05-90-PB25
  0
TEXT
  5
1B9A8
  8
0
  6
CONTINUOUS
 62
     3
 10
16.750302284917321
 20
4.0766630118729381
 30
0.0
 40
4.0
  1
JIS B 6339-2 : 2011
  0
TEXT
  5
1C189
  8
0
 62
     7
 10
149.92552577912281
 20
55.284279396026363
 30
0.0
 40
4.0
  1
CODE : 156750
  0
INSERT
  5
1C18A
  8
0
  6
CONTINUOUS
  2
*U42
 10
0.0
 20
0.0
 30
0.0
  0
ENDSEC
  0
EOF
